  0
SECTION
  2
HEADER
  9
$ACADVER
  1
AC1004
  9
$ANGBASE
 50
0.0000000000
  9
$ANGDIR
 70
     0
  9
$ATTDIA
 70
     0
  9
$ATTMODE
 70
     1
  9
$ATTREQ
 70
     1
  9
$AUNITS
 70
     0
  9
$AUPREC
 70
     0
  9
$AXISMODE
 70
     0
  9
$AXISUNIT
 10
0.0000000000
 20
0.0000000000
  9
$BLIPMODE
 70
     1
  9
$CECOLOR
 62
   256
  9
$CELTYPE
  6
BYLAYER
  9
$CHAMFERA
 40
0.0000000000
  9
$CHAMFERB
 40
0.0000000000
  9
$CLAYER
  8
0
  9
$COORDS
 70
     0
  9
$DIMALT
 70
     0
  9
$DIMALTD
 70
     2
  9
$DIMALTF
 40
25.4000000000
  9
$DIMAPOST
  1

  9
$DIMASO
 70
     1
  9
$DIMASZ
 40
1.9727878460
  9
$DIMBLK
  1

  9
$DIMBLK1
  1

  9
$DIMBLK2
  1

  9
$DIMCEN
 40
9.0000000000E-02
  9
$DIMDLE
 40
0.0000000000
  9
$DIMDLI
 40
0.3800000000
  9
$DIMEXE
 40
3.8099999428
  9
$DIMEXO
 40
2.5399999619
  9
$DIMLFAC
 40
1.0000000000
  9
$DIMLIM
 70
     0
  9
$DIMPOST
  1

  9
$DIMRND
 40
0.0000000000
  9
$DIMSCALE
 40
1.0000000000
  9
$DIMSE1
 70
     0
  9
$DIMSE2
 70
     0
  9
$DIMSHO
 70
     0
  9
$DIMTAD
 70
     0
  9
$DIMTIH
 70
     0
  9
$DIMTM
 40
0.0000000000
  9
$DIMTOH
 70
     1
  9
$DIMTOL
 70
     0
  9
$DIMTP
 40
0.0000000000
  9
$DIMTSZ
 40
0.0000000000
  9
$DIMTXT
 40
2.9999940395
  9
$DIMZIN
 70
     0
  9
$DRAGMODE
 70
     1
  9
$ELEVATION
 40
0.0000000000
  9
$EXTMAX
 10
3.1750000000
 20
278.8264587402
 30
0.0000000000
  9
$EXTMIN
 10
-198.3497589111
 20
-3.1750000000
 30
0.0000000000
  9
$FASTZOOM
 70
     1
  9
$FILLETRAD
 40
6.2500000000E-02
  9
$FILLMODE
 70
     1
  9
$GRIDMODE
 70
     0
  9
$GRIDUNIT
 10
0.0000000000
 20
0.0000000000
  9
$INSBASE
 10
0.0000000000
 20
0.0000000000
 30
0.0000000000
  9
$LIMCHECK
 70
     0
  9
$LIMMAX
 10
3.1750000000
 20
278.8264587402
  9
$LIMMIN
 10
-198.3497589111
 20
-3.1750000000
  9
$LTSCALE
 40
1.0000000000
  9
$LUNITS
 70
     2
  9
$LUPREC
 70
     3
  9
$MEASUREMENT
 70
     0
  9
$MENU
  1
ACAD
  9
$MIRRTEXT
 70
     0
  9
$ORTHOMODE
 70
     0
  9
$OSMODE
 70
     0
  9
$PDMODE
 70
     0
  9
$PDSIZE
 40
0.0000000000
  9
$PLINEWID
 40
0.0000000000
  9
$PROXYGRAPHICS
 70
     0
  9
$QTEXTMODE
 70
     0
  9
$REGENMODE
 70
     1
  9
$SKETCHINC
 40
0.1000000000
  9
$SKPOLY
 70
     0
  9
$SNAPANG
 50
0.0000000000
  9
$SNAPBASE
 10
0.0000000000
 20
0.0000000000
  9
$SNAPISOPAIR
 70
     0
  9
$SNAPMODE
 70
     0
  9
$SNAPSTYLE
 70
     0
  9
$SNAPUNIT
 10
1.0000000000
 20
1.0000000000
  9
$SPLFRAME
 70
     0
  9
$SPLINESEGS
 70
     8
  9
$TDCREATE
 40
2454684.6892708384
  9
$TDINDWG
 40
0.0000000000
  9
$TDUPDATE
 40
2454684.6892708384
  9
$TDUSRTIMER
 40
0.0000000000
  9
$TEXTSIZE
 40
2.9999940395
  9
$TEXTSTYLE
  7
STANDARD
  9
$THICKNESS
 40
0.0000000000
  9
$TRACEWID
 40
5.0000000000E-02
  9
$USERI1
 70
     0
  9
$USERI2
 70
     0
  9
$USERI3
 70
     0
  9
$USERI4
 70
     0
  9
$USERI5
 70
     0
  9
$USERR1
 40
0.0000000000
  9
$USERR2
 40
0.0000000000
  9
$USERR3
 40
0.0000000000
  9
$USERR4
 40
0.0000000000
  9
$USERR5
 40
0.0000000000
  9
$USRTIMER
 70
     1
  9
$VIEWCTR
 10
-97.5873794556
 20
137.8257293701
  9
$VIEWDIR
 10
0.0000000000
 20
0.0000000000
 30
1.0000000000
  9
$VIEWSIZE
 40
282.0014587402
  0
ENDSEC
  0
SECTION
  2
TABLES
  0
TABLE
  2
LTYPE
 70
     3
  0
LTYPE
  2
SOLID
  3
Solid
 70
    64
 72
    65
 73
     0
 40
0.0000000000
  0
LTYPE
  2
GAP
  3
Gap
 70
    64
 72
    65
 73
     3
 40
2540.9999980092
 49
0.0000000000
 49
-0.9999980092
 49
2540.0000000000
  0
LTYPE
  2
CENTER
  3
Center
 70
    64
 72
    65
 73
     4
 40
9.1000000238
 49
6.5000000000
 49
-0.8000000119
 49
1.0000000000
 49
-0.8000000119
  0
ENDTAB
  0
TABLE
  2
LAYER
 70
     4
  0
LAYER
  2
Layer1$C$L1
 70
     0
  6
SOLID
 62
     3
  0
LAYER
  2
Layer6$C$L6
 70
     0
  6
SOLID
 62
    31
  0
LAYER
  2
Layer8$C$L8
 70
     0
  6
SOLID
 62
     7
  0
LAYER
  2
Layer9$C$L9
 70
     0
  6
SOLID
 62
     2
  0
ENDTAB
  0
TABLE
  2
STYLE
 70
     1
  0
STYLE
  2
STANDARD
  3
txt
  4

 40
0.0000000000
 41
1.0000000000
 42
3.0000000000
 50
0.0000000000
 70
     0
 71
     0
  0
ENDTAB
  0
ENDSEC
  0
SECTION
  2
BLOCKS
  0
BLOCK
  8
Layer9$C$L9
  2
*D0
 70
     1
 10
0.0000000000
 20
0.0000000000
  0
LINE
  8
Layer9$C$L9
 62
     3
 10
-91.2275814229
 20
194.8923162035
 11
-92.8975904728
 21
193.7918300503
  0
LINE
  8
Layer9$C$L9
 62
     3
 10
-91.2275814229
 20
194.8923162035
 11
-92.5558595190
 21
193.3970980590
  0
LINE
  8
Layer9$C$L9
 62
     3
 10
-104.8362980367
 20
183.1108548287
 11
-103.1662889869
 21
184.2113409820
  0
LINE
  8
Layer9$C$L9
 62
     3
 10
-104.8362980367
 20
183.1108548287
 11
-103.5080199407
 21
184.6060729732
  0
LINE
  8
Layer9$C$L9
 62
     3
 10
-91.2275814229
 20
194.8923162035
 11
-104.8362980367
 21
183.1108548287
  0
LINE
  8
Layer9$C$L9
 62
     3
 10
-104.8362980367
 20
183.1108548287
 11
-114.2987607736
 21
174.9189259050
  0
TEXT
  8
Layer9$C$L9
 62
     3
 10
-113.6809756454
 20
176.1151011590
 40
2.4999949932
  1
%%c18
 50
40.8836921263
 72
     5
 11
-108.5538973277
 21
180.5537620594
  0
ENDBLK
  8
Layer9$C$L9
  0
BLOCK
  8
Layer9$C$L9
  2
*D1
 70
     1
 10
0.0000000000
 20
0.0000000000
  0
LINE
  8
Layer9$C$L9
 62
     3
 10
-92.1122600794
 20
199.4398513125
 11
-93.3175105891
 21
197.8438026889
  0
LINE
  8
Layer9$C$L9
 62
     3
 10
-92.1122600794
 20
199.4398513125
 11
-92.8633548932
 21
197.5862449409
  0
LINE
  8
Layer9$C$L9
 62
     3
 10
-103.9516193802
 20
178.5633197197
 11
-102.7463688706
 21
180.1593683433
  0
LINE
  8
Layer9$C$L9
 62
     3
 10
-103.9516193802
 20
178.5633197197
 11
-103.2005245665
 21
180.4169260913
  0
LINE
  8
Layer9$C$L9
 62
     3
 10
-92.1122600794
 20
199.4398513125
 11
-103.9516193802
 21
178.5633197197
  0
LINE
  8
Layer9$C$L9
 62
     3
 10
-103.9516193802
 20
178.5633197197
 11
-108.7617083587
 21
170.0816129001
  0
TEXT
  8
Layer9$C$L9
 62
     3
 10
-108.5800038420
 20
171.4155833350
 40
2.4999949932
  1
%%c24
 50
60.4418534372
 72
     5
 11
-105.2346488514
 21
177.3145021047
  0
ENDBLK
  8
Layer9$C$L9
  0
BLOCK
  8
Layer9$C$L9
  2
*D2
 70
     1
 10
0.0000000000
 20
0.0000000000
  0
LINE
  8
Layer9$C$L9
 62
     3
 10
-98.0319397298
 20
137.0015855161
 11
-97.7708873454
 21
138.9844752389
  0
LINE
  8
Layer9$C$L9
 62
     3
 10
-98.0319397298
 20
137.0015855161
 11
-98.2929921143
 21
138.9844752389
  0
LINE
  8
Layer9$C$L9
 62
     3
 10
-98.0319397298
 20
161.0015855161
 11
-98.2929921143
 21
159.0186957934
  0
LINE
  8
Layer9$C$L9
 62
     3
 10
-98.0319397298
 20
161.0015855161
 11
-97.7708873454
 21
159.0186957934
  0
LINE
  8
Layer9$C$L9
 62
     3
 10
-98.0319397298
 20
137.0015855161
 11
-98.0319397298
 21
161.0015855161
  0
LINE
  8
Layer9$C$L9
  6
GAP
 62
     3
 10
-88.5719396917
 20
137.0015855161
 11
-99.5319367496
 21
137.0015855161
  0
LINE
  8
Layer9$C$L9
  6
GAP
 62
     3
 10
-88.5719396917
 20
161.0015855161
 11
-99.5319367496
 21
161.0015855161
  0
POLYLINE
  8
Layer9$C$L9
 62
     3
 66
     1
 70
     1
  0
VERTEX
  8
Layer9$C$L9
 62
     3
 10
-98.8703714105
 20
145.7129954665
  0
VERTEX
  8
Layer9$C$L9
 62
     3
 10
-98.8703713208
 20
146.9004398537
  0
VERTEX
  8
Layer9$C$L9
 62
     3
 10
-100.3942908886
 20
146.9004399687
  0
VERTEX
  8
Layer9$C$L9
 62
     3
 10
-100.3942909783
 20
145.7129955815
  0
VERTEX
  8
Layer9$C$L9
 62
     3
 10
-98.8703714105
 20
145.7129954665
  0
SEQEND
  8
Layer9$C$L9
 62
     3
  0
POLYLINE
  8
Layer9$C$L9
 62
     3
 66
     1
 70
     4
 75
     6
  0
VERTEX
  8
Layer9$C$L9
 62
     3
 10
-100.2456156201
 20
149.4004348992
 70
    16
  0
VERTEX
  8
Layer9$C$L9
 62
     3
 10
-100.2456156201
 20
149.4004348992
 70
     8
  0
VERTEX
  8
Layer9$C$L9
 62
     3
 10
-100.0910106556
 20
149.3840894930
 70
     8
  0
VERTEX
  8
Layer9$C$L9
 62
     3
 10
-99.9499771849
 20
149.3378959761
 70
     8
  0
VERTEX
  8
Layer9$C$L9
 62
     3
 10
-99.8225152079
 20
149.2661183645
 70
     8
  0
VERTEX
  8
Layer9$C$L9
 62
     3
 10
-99.7086247241
 20
149.1730206741
 70
     8
  0
VERTEX
  8
Layer9$C$L9
 62
     3
 10
-99.6083057333
 20
149.0628669209
 70
     8
  0
VERTEX
  8
Layer9$C$L9
 62
     3
 10
-99.5215582351
 20
148.9399211208
 70
     8
  0
VERTEX
  8
Layer9$C$L9
 62
     3
 10
-99.4483822292
 20
148.8084472898
 70
     8
  0
VERTEX
  8
Layer9$C$L9
 62
     3
 10
-99.3887777152
 20
148.6727094439
 70
     8
  0
VERTEX
  8
Layer9$C$L9
 62
     3
 10
-99.8152403892
 20
149.4004348667
 70
    16
  0
VERTEX
  8
Layer9$C$L9
 62
     3
 10
-99.5296277633
 20
149.0365721498
 70
    16
  0
VERTEX
  8
Layer9$C$L9
 62
     3
 10
-99.3887777152
 20
148.6727094439
 70
    16
  0
SEQEND
  8
Layer9$C$L9
 62
     3
  0
POLYLINE
  8
Layer9$C$L9
 62
     3
 66
     1
 70
     4
 75
     6
  0
VERTEX
  8
Layer9$C$L9
 62
     3
 10
-99.3887777152
 20
148.6727094439
 70
    16
  0
VERTEX
  8
Layer9$C$L9
 62
     3
 10
-99.3887777152
 20
148.6727094439
 70
     8
  0
VERTEX
  8
Layer9$C$L9
 62
     3
 10
-99.3221123543
 20
148.5822385590
 70
     8
  0
VERTEX
  8
Layer9$C$L9
 62
     3
 10
-99.2339893644
 20
148.4946447371
 70
     8
  0
VERTEX
  8
Layer9$C$L9
 62
     3
 10
-99.1293605058
 20
148.4127591933
 70
     8
  0
VERTEX
  8
Layer9$C$L9
 62
     3
 10
-99.0131775388
 20
148.3394131430
 70
     8
  0
VERTEX
  8
Layer9$C$L9
 62
     3
 10
-98.8903922237
 20
148.2774378014
 70
     8
  0
VERTEX
  8
Layer9$C$L9
 62
     3
 10
-98.7659563207
 20
148.2296643838
 70
     8
  0
VERTEX
  8
Layer9$C$L9
 62
     3
 10
-98.6448215900
 20
148.1989241054
 70
     8
  0
VERTEX
  8
Layer9$C$L9
 62
     3
 10
-98.5319397920
 20
148.1880481816
 70
     8
  0
VERTEX
  8
Layer9$C$L9
 62
     3
 10
-99.2440151559
 20
148.4301343028
 70
    16
  0
VERTEX
  8
Layer9$C$L9
 62
     3
 10
-98.8175524453
 20
148.1880482032
 70
    16
  0
VERTEX
  8
Layer9$C$L9
 62
     3
 10
-98.5319397920
 20
148.1880481816
 70
    16
  0
SEQEND
  8
Layer9$C$L9
 62
     3
  0
LINE
  8
Layer9$C$L9
 62
     3
 10
-98.5319397920
 20
148.1880481816
 11
-98.5319397005
 21
149.4004347698
  0
POLYLINE
  8
Layer9$C$L9
 62
     3
 66
     1
 70
     4
 75
     6
  0
VERTEX
  8
Layer9$C$L9
 62
     3
 10
-100.2456157116
 20
148.1880483110
 70
    16
  0
VERTEX
  8
Layer9$C$L9
 62
     3
 10
-100.2456157116
 20
148.1880483110
 70
     8
  0
VERTEX
  8
Layer9$C$L9
 62
     3
 10
-100.4535896474
 20
148.2401430629
 70
     8
  0
VERTEX
  8
Layer9$C$L9
 62
     3
 10
-100.6021424512
 20
148.3774837423
 70
     8
  0
VERTEX
  8
Layer9$C$L9
 62
     3
 10
-100.6912741250
 20
148.5716550386
 70
     8
  0
VERTEX
  8
Layer9$C$L9
 62
     3
 10
-100.7209846710
 20
148.7942416410
 70
     8
  0
VERTEX
  8
Layer9$C$L9
 62
     3
 10
-100.6912740914
 20
149.0168282389
 70
     8
  0
VERTEX
  8
Layer9$C$L9
 62
     3
 10
-100.6021423882
 20
149.2109995217
 70
     8
  0
VERTEX
  8
Layer9$C$L9
 62
     3
 10
-100.4535895638
 20
149.3483401786
 70
     8
  0
VERTEX
  8
Layer9$C$L9
 62
     3
 10
-100.2456156201
 20
149.4004348992
 70
     8
  0
VERTEX
  8
Layer9$C$L9
 62
     3
 10
-100.8794410518
 20
148.1880483589
 70
    16
  0
VERTEX
  8
Layer9$C$L9
 62
     3
 10
-100.8794409603
 20
149.4004349470
 70
    16
  0
VERTEX
  8
Layer9$C$L9
 62
     3
 10
-100.2456156201
 20
149.4004348992
 70
    16
  0
SEQEND
  8
Layer9$C$L9
 62
     3
  0
LINE
  8
Layer9$C$L9
 62
     3
 10
-98.9818773450
 20
150.6841306551
 11
-98.9818772520
 21
151.9160797538
  0
POLYLINE
  8
Layer9$C$L9
 62
     3
 66
     1
  0
VERTEX
  8
Layer9$C$L9
 62
     3
 10
-98.5319379399
 20
151.6656795854
  0
VERTEX
  8
Layer9$C$L9
 62
     3
 10
-100.6759906801
 20
151.6656797473
  0
VERTEX
  8
Layer9$C$L9
 62
     3
 10
-98.9818773450
 20
150.6841306551
  0
SEQEND
  8
Layer9$C$L9
 62
     3
  0
ENDBLK
  8
Layer9$C$L9
  0
BLOCK
  8
Layer9$C$L9
  2
*D3
 70
     1
 10
0.0000000000
 20
0.0000000000
  0
LINE
  8
Layer9$C$L9
 62
     3
 10
-157.4144874604
 20
178.3015855161
 11
-157.1534350760
 21
180.2844752389
  0
LINE
  8
Layer9$C$L9
 62
     3
 10
-157.4144874604
 20
178.3015855161
 11
-157.6755398449
 21
180.2844752389
  0
LINE
  8
Layer9$C$L9
 62
     3
 10
-157.4144874604
 20
199.7015855161
 11
-157.6755398449
 21
197.7186957934
  0
LINE
  8
Layer9$C$L9
 62
     3
 10
-157.4144874604
 20
199.7015855161
 11
-157.1534350760
 21
197.7186957934
  0
LINE
  8
Layer9$C$L9
 62
     3
 10
-157.4144874604
 20
178.3015855161
 11
-157.4144874604
 21
199.7015855161
  0
LINE
  8
Layer9$C$L9
  6
GAP
 62
     3
 10
-153.9544874223
 20
178.3015855161
 11
-158.9144844802
 21
178.3015855161
  0
LINE
  8
Layer9$C$L9
  6
GAP
 62
     3
 10
-153.9544874223
 20
199.7015855161
 11
-158.9144844802
 21
199.7015855161
  0
TEXT
  8
Layer9$C$L9
 62
     3
 10
-157.9144879059
 20
183.1108442069
 40
2.4999949932
  1
%%c
 50
89.9999956743
 72
     5
 11
-157.9144877714
 21
184.8923469813
  0
TEXT
  8
Layer9$C$L9
 62
     3
 10
-157.9144877210
 20
185.5608392497
 40
2.4999949932
  1
21.4
 50
89.9999956743
 72
     5
 11
-157.9144870165
 21
194.8923267478
  0
ENDBLK
  8
Layer9$C$L9
  0
BLOCK
  8
Layer9$C$L9
  2
*D4
 70
     1
 10
0.0000000000
 20
0.0000000000
  0
LINE
  8
Layer9$C$L9
 62
     3
 10
-157.4144874604
 20
138.3015855161
 11
-157.1534350760
 21
140.2844752389
  0
LINE
  8
Layer9$C$L9
 62
     3
 10
-157.4144874604
 20
138.3015855161
 11
-157.6755398449
 21
140.2844752389
  0
LINE
  8
Layer9$C$L9
 62
     3
 10
-157.4144874604
 20
159.7015855161
 11
-157.6755398449
 21
157.7186957934
  0
LINE
  8
Layer9$C$L9
 62
     3
 10
-157.4144874604
 20
159.7015855161
 11
-157.1534350760
 21
157.7186957934
  0
LINE
  8
Layer9$C$L9
 62
     3
 10
-157.4144874604
 20
138.3015855161
 11
-157.4144874604
 21
159.7015855161
  0
LINE
  8
Layer9$C$L9
  6
GAP
 62
     3
 10
-153.9544874223
 20
138.3015855161
 11
-158.9144844802
 21
138.3015855161
  0
LINE
  8
Layer9$C$L9
  6
GAP
 62
     3
 10
-153.9544874223
 20
159.7015855161
 11
-158.9144844802
 21
159.7015855161
  0
POLYLINE
  8
Layer9$C$L9
 62
     3
 66
     1
 70
     1
  0
VERTEX
  8
Layer9$C$L9
 62
     3
 10
-158.2529193298
 20
143.2130003927
  0
VERTEX
  8
Layer9$C$L9
 62
     3
 10
-158.2529192402
 20
144.4004447799
  0
VERTEX
  8
Layer9$C$L9
 62
     3
 10
-159.7768388080
 20
144.4004448950
  0
VERTEX
  8
Layer9$C$L9
 62
     3
 10
-159.7768388977
 20
143.2130005078
  0
VERTEX
  8
Layer9$C$L9
 62
     3
 10
-158.2529193298
 20
143.2130003927
  0
SEQEND
  8
Layer9$C$L9
 62
     3
  0
POLYLINE
  8
Layer9$C$L9
 62
     3
 66
     1
 70
     4
 75
     6
  0
VERTEX
  8
Layer9$C$L9
 62
     3
 10
-159.6281635395
 20
146.9004398254
 70
    16
  0
VERTEX
  8
Layer9$C$L9
 62
     3
 10
-159.6281635395
 20
146.9004398254
 70
     8
  0
VERTEX
  8
Layer9$C$L9
 62
     3
 10
-159.4735585749
 20
146.8840944192
 70
     8
  0
VERTEX
  8
Layer9$C$L9
 62
     3
 10
-159.3325251043
 20
146.8379009023
 70
     8
  0
VERTEX
  8
Layer9$C$L9
 62
     3
 10
-159.2050631272
 20
146.7661232907
 70
     8
  0
VERTEX
  8
Layer9$C$L9
 62
     3
 10
-159.0911726435
 20
146.6730256003
 70
     8
  0
VERTEX
  8
Layer9$C$L9
 62
     3
 10
-158.9908536526
 20
146.5628718471
 70
     8
  0
VERTEX
  8
Layer9$C$L9
 62
     3
 10
-158.9041061544
 20
146.4399260470
 70
     8
  0
VERTEX
  8
Layer9$C$L9
 62
     3
 10
-158.8309301485
 20
146.3084522161
 70
     8
  0
VERTEX
  8
Layer9$C$L9
 62
     3
 10
-158.7713256346
 20
146.1727143702
 70
     8
  0
VERTEX
  8
Layer9$C$L9
 62
     3
 10
-159.1977883085
 20
146.9004397929
 70
    16
  0
VERTEX
  8
Layer9$C$L9
 62
     3
 10
-158.9121756827
 20
146.5365770761
 70
    16
  0
VERTEX
  8
Layer9$C$L9
 62
     3
 10
-158.7713256346
 20
146.1727143702
 70
    16
  0
SEQEND
  8
Layer9$C$L9
 62
     3
  0
POLYLINE
  8
Layer9$C$L9
 62
     3
 66
     1
 70
     4
 75
     6
  0
VERTEX
  8
Layer9$C$L9
 62
     3
 10
-158.7713256346
 20
146.1727143702
 70
    16
  0
VERTEX
  8
Layer9$C$L9
 62
     3
 10
-158.7713256346
 20
146.1727143702
 70
     8
  0
VERTEX
  8
Layer9$C$L9
 62
     3
 10
-158.7046602736
 20
146.0822434853
 70
     8
  0
VERTEX
  8
Layer9$C$L9
 62
     3
 10
-158.6165372837
 20
145.9946496633
 70
     8
  0
VERTEX
  8
Layer9$C$L9
 62
     3
 10
-158.5119084252
 20
145.9127641195
 70
     8
  0
VERTEX
  8
Layer9$C$L9
 62
     3
 10
-158.3957254582
 20
145.8394180692
 70
     8
  0
VERTEX
  8
Layer9$C$L9
 62
     3
 10
-158.2729401431
 20
145.7774427276
 70
     8
  0
VERTEX
  8
Layer9$C$L9
 62
     3
 10
-158.1485042401
 20
145.7296693100
 70
     8
  0
VERTEX
  8
Layer9$C$L9
 62
     3
 10
-158.0273695094
 20
145.6989290317
 70
     8
  0
VERTEX
  8
Layer9$C$L9
 62
     3
 10
-157.9144877114
 20
145.6880531079
 70
     8
  0
VERTEX
  8
Layer9$C$L9
 62
     3
 10
-158.6265630752
 20
145.9301392291
 70
    16
  0
VERTEX
  8
Layer9$C$L9
 62
     3
 10
-158.2001003646
 20
145.6880531295
 70
    16
  0
VERTEX
  8
Layer9$C$L9
 62
     3
 10
-157.9144877114
 20
145.6880531079
 70
    16
  0
SEQEND
  8
Layer9$C$L9
 62
     3
  0
LINE
  8
Layer9$C$L9
 62
     3
 10
-157.9144877114
 20
145.6880531079
 11
-157.9144876198
 21
146.9004396960
  0
POLYLINE
  8
Layer9$C$L9
 62
     3
 66
     1
 70
     4
 75
     6
  0
VERTEX
  8
Layer9$C$L9
 62
     3
 10
-159.6281636310
 20
145.6880532373
 70
    16
  0
VERTEX
  8
Layer9$C$L9
 62
     3
 10
-159.6281636310
 20
145.6880532373
 70
     8
  0
VERTEX
  8
Layer9$C$L9
 62
     3
 10
-159.8361375668
 20
145.7401479892
 70
     8
  0
VERTEX
  8
Layer9$C$L9
 62
     3
 10
-159.9846903705
 20
145.8774886686
 70
     8
  0
VERTEX
  8
Layer9$C$L9
 62
     3
 10
-160.0738220443
 20
146.0716599648
 70
     8
  0
VERTEX
  8
Layer9$C$L9
 62
     3
 10
-160.1035325903
 20
146.2942465672
 70
     8
  0
VERTEX
  8
Layer9$C$L9
 62
     3
 10
-160.0738220107
 20
146.5168331651
 70
     8
  0
VERTEX
  8
Layer9$C$L9
 62
     3
 10
-159.9846903076
 20
146.7110044479
 70
     8
  0
VERTEX
  8
Layer9$C$L9
 62
     3
 10
-159.8361374831
 20
146.8483451049
 70
     8
  0
VERTEX
  8
Layer9$C$L9
 62
     3
 10
-159.6281635395
 20
146.9004398254
 70
     8
  0
VERTEX
  8
Layer9$C$L9
 62
     3
 10
-160.2619889712
 20
145.6880532851
 70
    16
  0
VERTEX
  8
Layer9$C$L9
 62
     3
 10
-160.2619888796
 20
146.9004398733
 70
    16
  0
VERTEX
  8
Layer9$C$L9
 62
     3
 10
-159.6281635395
 20
146.9004398254
 70
    16
  0
SEQEND
  8
Layer9$C$L9
 62
     3
  0
LINE
  8
Layer9$C$L9
 62
     3
 10
-160.1211386611
 20
148.7939969788
 11
-159.8472635351
 21
148.5162093091
  0
LINE
  8
Layer9$C$L9
 62
     3
 10
-160.1211386611
 20
148.7939969788
 11
-157.8729171421
 21
148.7939968091
  0
POLYLINE
  8
Layer9$C$L9
 62
     3
 66
     1
 70
     4
 75
     6
  0
VERTEX
  8
Layer9$C$L9
 62
     3
 10
-158.0264826672
 20
151.2079167161
 70
    16
  0
VERTEX
  8
Layer9$C$L9
 62
     3
 10
-158.0264826672
 20
151.2079167161
 70
     8
  0
VERTEX
  8
Layer9$C$L9
 62
     3
 10
-157.9779393667
 20
151.2153137867
 70
     8
  0
VERTEX
  8
Layer9$C$L9
 62
     3
 10
-157.9432655795
 20
151.2348151618
 70
     8
  0
VERTEX
  8
Layer9$C$L9
 62
     3
 10
-157.9224613060
 20
151.2623860734
 70
     8
  0
VERTEX
  8
Layer9$C$L9
 62
     3
 10
-157.9155265465
 20
151.2939917539
 70
     8
  0
VERTEX
  8
Layer9$C$L9
 62
     3
 10
-157.9224613012
 20
151.3255974355
 70
     8
  0
VERTEX
  8
Layer9$C$L9
 62
     3
 10
-157.9432655706
 20
151.3531683503
 70
     8
  0
VERTEX
  8
Layer9$C$L9
 62
     3
 10
-157.9779393548
 20
151.3726697305
 70
     8
  0
VERTEX
  8
Layer9$C$L9
 62
     3
 10
-158.0264826542
 20
151.3800668085
 70
     8
  0
VERTEX
  8
Layer9$C$L9
 62
     3
 10
-157.8785411816
 20
151.2079167049
 70
    16
  0
VERTEX
  8
Layer9$C$L9
 62
     3
 10
-157.8785411686
 20
151.3800667973
 70
    16
  0
VERTEX
  8
Layer9$C$L9
 62
     3
 10
-158.0264826542
 20
151.3800668085
 70
    16
  0
SEQEND
  8
Layer9$C$L9
 62
     3
  0
POLYLINE
  8
Layer9$C$L9
 62
     3
 66
     1
 70
     4
 75
     6
  0
VERTEX
  8
Layer9$C$L9
 62
     3
 10
-158.0264826542
 20
151.3800668085
 70
    16
  0
VERTEX
  8
Layer9$C$L9
 62
     3
 10
-158.0264826542
 20
151.3800668085
 70
     8
  0
VERTEX
  8
Layer9$C$L9
 62
     3
 10
-158.0751061916
 20
151.3726697379
 70
     8
  0
VERTEX
  8
Layer9$C$L9
 62
     3
 10
-158.1098372908
 20
151.3531683628
 70
     8
  0
VERTEX
  8
Layer9$C$L9
 62
     3
 10
-158.1306759516
 20
151.3255974512
 70
     8
  0
VERTEX
  8
Layer9$C$L9
 62
     3
 10
-158.1376221735
 20
151.2939917707
 70
     8
  0
VERTEX
  8
Layer9$C$L9
 62
     3
 10
-158.1306759563
 20
151.2623860891
 70
     8
  0
VERTEX
  8
Layer9$C$L9
 62
     3
 10
-158.1098372998
 20
151.2348151743
 70
     8
  0
VERTEX
  8
Layer9$C$L9
 62
     3
 10
-158.0751062035
 20
151.2153137941
 70
     8
  0
VERTEX
  8
Layer9$C$L9
 62
     3
 10
-158.0264826672
 20
151.2079167161
 70
     8
  0
VERTEX
  8
Layer9$C$L9
 62
     3
 10
-158.1746686713
 20
151.3800668197
 70
    16
  0
VERTEX
  8
Layer9$C$L9
 62
     3
 10
-158.1746686842
 20
151.2079167273
 70
    16
  0
VERTEX
  8
Layer9$C$L9
 62
     3
 10
-158.0264826672
 20
151.2079167161
 70
    16
  0
SEQEND
  8
Layer9$C$L9
 62
     3
  0
POLYLINE
  8
Layer9$C$L9
 62
     3
 66
     1
 70
     4
 75
     6
  0
VERTEX
  8
Layer9$C$L9
 62
     3
 10
-158.0264826643
 20
151.2470417371
 70
    16
  0
VERTEX
  8
Layer9$C$L9
 62
     3
 10
-158.0264826643
 20
151.2470417371
 70
     8
  0
VERTEX
  8
Layer9$C$L9
 62
     3
 10
-158.0002452109
 20
151.2510765029
 70
     8
  0
VERTEX
  8
Layer9$C$L9
 62
     3
 10
-157.9815041722
 20
151.2617136166
 70
     8
  0
VERTEX
  8
Layer9$C$L9
 62
     3
 10
-157.9702595484
 20
151.2767522957
 70
     8
  0
VERTEX
  8
Layer9$C$L9
 62
     3
 10
-157.9665113395
 20
151.2939917578
 70
     8
  0
VERTEX
  8
Layer9$C$L9
 62
     3
 10
-157.9702595458
 20
151.3112312204
 70
     8
  0
VERTEX
  8
Layer9$C$L9
 62
     3
 10
-157.9815041674
 20
151.3262699012
 70
     8
  0
VERTEX
  8
Layer9$C$L9
 62
     3
 10
-158.0002452044
 20
151.3369070177
 70
     8
  0
VERTEX
  8
Layer9$C$L9
 62
     3
 10
-158.0264826572
 20
151.3409417875
 70
     8
  0
VERTEX
  8
Layer9$C$L9
 62
     3
 10
-157.9465209026
 20
151.2470417311
 70
    16
  0
VERTEX
  8
Layer9$C$L9
 62
     3
 10
-157.9465208955
 20
151.3409417815
 70
    16
  0
VERTEX
  8
Layer9$C$L9
 62
     3
 10
-158.0264826572
 20
151.3409417875
 70
    16
  0
SEQEND
  8
Layer9$C$L9
 62
     3
  0
POLYLINE
  8
Layer9$C$L9
 62
     3
 66
     1
 70
     4
 75
     6
  0
VERTEX
  8
Layer9$C$L9
 62
     3
 10
-158.0264826572
 20
151.3409417875
 70
    16
  0
VERTEX
  8
Layer9$C$L9
 62
     3
 10
-158.0264826572
 20
151.3409417875
 70
     8
  0
VERTEX
  8
Layer9$C$L9
 62
     3
 10
-158.0526398737
 20
151.3369070217
 70
     8
  0
VERTEX
  8
Layer9$C$L9
 62
     3
 10
-158.0713236003
 20
151.3262699080
 70
     8
  0
VERTEX
  8
Layer9$C$L9
 62
     3
 10
-158.0825338370
 20
151.3112312289
 70
     8
  0
VERTEX
  8
Layer9$C$L9
 62
     3
 10
-158.0862705834
 20
151.2939917668
 70
     8
  0
VERTEX
  8
Layer9$C$L9
 62
     3
 10
-158.0825338396
 20
151.2767523041
 70
     8
  0
VERTEX
  8
Layer9$C$L9
 62
     3
 10
-158.0713236052
 20
151.2617136234
 70
     8
  0
VERTEX
  8
Layer9$C$L9
 62
     3
 10
-158.0526398802
 20
151.2510765069
 70
     8
  0
VERTEX
  8
Layer9$C$L9
 62
     3
 10
-158.0264826643
 20
151.2470417371
 70
     8
  0
VERTEX
  8
Layer9$C$L9
 62
     3
 10
-158.1061998875
 20
151.3409417935
 70
    16
  0
VERTEX
  8
Layer9$C$L9
 62
     3
 10
-158.1061998945
 20
151.2470417431
 70
    16
  0
VERTEX
  8
Layer9$C$L9
 62
     3
 10
-158.0264826643
 20
151.2470417371
 70
    16
  0
SEQEND
  8
Layer9$C$L9
 62
     3
  0
LINE
  8
Layer9$C$L9
 62
     3
 10
-158.3644248869
 20
153.1841254647
 11
-158.3644247939
 21
154.4160745633
  0
POLYLINE
  8
Layer9$C$L9
 62
     3
 66
     1
  0
VERTEX
  8
Layer9$C$L9
 62
     3
 10
-157.9144854818
 20
154.1656743949
  0
VERTEX
  8
Layer9$C$L9
 62
     3
 10
-160.0585382219
 20
154.1656745568
  0
VERTEX
  8
Layer9$C$L9
 62
     3
 10
-158.3644248869
 20
153.1841254647
  0
SEQEND
  8
Layer9$C$L9
 62
     3
  0
ENDBLK
  8
Layer9$C$L9
  0
BLOCK
  8
Layer9$C$L9
  2
*D5
 70
     1
 10
0.0000000000
 20
0.0000000000
  0
LINE
  8
Layer9$C$L9
 62
     3
 10
-89.7506187701
 20
102.3062435592
 11
-91.3572007289
 21
101.1150700162
  0
LINE
  8
Layer9$C$L9
 62
     3
 10
-89.7506187701
 20
102.3062435592
 11
-90.9941593772
 21
100.7398442619
  0
LINE
  8
Layer9$C$L9
 62
     3
 10
-89.7506187701
 20
102.3062435592
 11
-99.7587217294
 21
92.6231256351
  0
TEXT
  8
Layer9$C$L9
 62
     3
 10
-99.2080457826
 20
93.8516410349
 40
2.4999949932
  1
4-
 50
44.0544708447
 72
     5
 11
-96.0950891194
 21
96.8635129444
  0
TEXT
  8
Layer9$C$L9
 62
     3
 10
-95.6146577198
 20
97.3283436483
 40
2.4999949932
  1
R1
 50
44.0544708447
 72
     5
 11
-92.5017010565
 21
100.3402155579
  0
ENDBLK
  8
Layer9$C$L9
  0
BLOCK
  8
Layer9$C$L9
  2
*D6
 70
     1
 10
0.0000000000
 20
0.0000000000
  0
LINE
  8
Layer9$C$L9
 62
     3
 10
-87.0319397298
 20
96.0015855161
 11
-85.0490500071
 21
95.7405331317
  0
LINE
  8
Layer9$C$L9
 62
     3
 10
-87.0319397298
 20
96.0015855161
 11
-85.0490500071
 21
96.2626379006
  0
LINE
  8
Layer9$C$L9
 62
     3
 10
-63.0319397298
 20
96.0015855161
 11
-65.0148294526
 21
96.2626379006
  0
LINE
  8
Layer9$C$L9
 62
     3
 10
-63.0319397298
 20
96.0015855161
 11
-65.0148294526
 21
95.7405331317
  0
LINE
  8
Layer9$C$L9
 62
     3
 10
-87.0319397298
 20
96.0015855161
 11
-63.0319397298
 21
96.0015855161
  0
LINE
  8
Layer9$C$L9
  6
GAP
 62
     3
 10
-87.0319397298
 20
102.4615855543
 11
-87.0319397298
 21
94.5015884964
  0
LINE
  8
Layer9$C$L9
  6
GAP
 62
     3
 10
-63.0319397298
 20
102.4615855543
 11
-63.0319397298
 21
94.5015884964
  0
TEXT
  8
Layer9$C$L9
 62
     3
 10
-77.1976885809
 20
96.5015853275
 40
2.4999949932
  1
24
 72
     5
 11
-72.8661909661
 21
96.5015857062
  0
ENDBLK
  8
Layer9$C$L9
  0
BLOCK
  8
Layer9$C$L9
  2
*D7
 70
     1
 10
0.0000000000
 20
0.0000000000
  0
LINE
  8
Layer9$C$L9
 62
     3
 10
-90.0319397298
 20
91.0015855161
 11
-88.0490500071
 21
90.7405331317
  0
LINE
  8
Layer9$C$L9
 62
     3
 10
-90.0319397298
 20
91.0015855161
 11
-88.0490500071
 21
91.2626379006
  0
LINE
  8
Layer9$C$L9
 62
     3
 10
-60.0319397298
 20
91.0015855161
 11
-62.0148294526
 21
91.2626379006
  0
LINE
  8
Layer9$C$L9
 62
     3
 10
-60.0319397298
 20
91.0015855161
 11
-62.0148294526
 21
90.7405331317
  0
LINE
  8
Layer9$C$L9
 62
     3
 10
-90.0319397298
 20
91.0015855161
 11
-60.0319397298
 21
91.0015855161
  0
LINE
  8
Layer9$C$L9
  6
GAP
 62
     3
 10
-90.0319397298
 20
100.4615855543
 11
-90.0319397298
 21
89.5015884964
  0
LINE
  8
Layer9$C$L9
  6
GAP
 62
     3
 10
-60.0319397298
 20
100.4615855543
 11
-60.0319397298
 21
89.5015884964
  0
TEXT
  8
Layer9$C$L9
 62
     3
 10
-77.1976885372
 20
91.5015855169
 40
2.4999949932
  1
30
 72
     5
 11
-72.8661909224
 21
91.5015855169
  0
ENDBLK
  8
Layer9$C$L9
  0
BLOCK
  8
Layer9$C$L9
  2
*D8
 70
     1
 10
0.0000000000
 20
0.0000000000
  0
LINE
  8
Layer9$C$L9
 62
     3
 10
-96.0319397298
 20
123.0015855161
 11
-96.2929921143
 21
121.0186957934
  0
LINE
  8
Layer9$C$L9
 62
     3
 10
-96.0319397298
 20
123.0015855161
 11
-95.7708873454
 21
121.0186957934
  0
LINE
  8
Layer9$C$L9
 62
     3
 10
-96.0319397298
 20
105.0015855161
 11
-95.7708873454
 21
106.9844752389
  0
LINE
  8
Layer9$C$L9
 62
     3
 10
-96.0319397298
 20
105.0015855161
 11
-96.2929921143
 21
106.9844752389
  0
LINE
  8
Layer9$C$L9
 62
     3
 10
-96.0319397298
 20
123.0015855161
 11
-96.0319397298
 21
105.0015855161
  0
LINE
  8
Layer9$C$L9
  6
GAP
 62
     3
 10
-89.5719396917
 20
123.0015855161
 11
-97.5319367496
 21
123.0015855161
  0
LINE
  8
Layer9$C$L9
  6
GAP
 62
     3
 10
-89.5719396917
 20
105.0015855161
 11
-97.5319367496
 21
105.0015855161
  0
TEXT
  8
Layer9$C$L9
 62
     3
 10
-96.5319398941
 20
111.8358367465
 40
2.4999949932
  1
18
 50
89.9999956743
 72
     5
 11
-96.5319395671
 21
116.1673343613
  0
ENDBLK
  8
Layer9$C$L9
  0
BLOCK
  8
Layer9$C$L9
  2
*D9
 70
     1
 10
0.0000000000
 20
0.0000000000
  0
LINE
  8
Layer9$C$L9
 62
     3
 10
-101.0319397298
 20
126.0015855161
 11
-101.2929921143
 21
124.0186957934
  0
LINE
  8
Layer9$C$L9
 62
     3
 10
-101.0319397298
 20
126.0015855161
 11
-100.7708873454
 21
124.0186957934
  0
LINE
  8
Layer9$C$L9
 62
     3
 10
-101.0319397298
 20
102.0015855161
 11
-100.7708873454
 21
103.9844752389
  0
LINE
  8
Layer9$C$L9
 62
     3
 10
-101.0319397298
 20
102.0015855161
 11
-101.2929921143
 21
103.9844752389
  0
LINE
  8
Layer9$C$L9
 62
     3
 10
-101.0319397298
 20
126.0015855161
 11
-101.0319397298
 21
102.0015855161
  0
LINE
  8
Layer9$C$L9
  6
GAP
 62
     3
 10
-91.5719396917
 20
126.0015855161
 11
-102.5319367496
 21
126.0015855161
  0
LINE
  8
Layer9$C$L9
  6
GAP
 62
     3
 10
-91.5719396917
 20
102.0015855161
 11
-102.5319367496
 21
102.0015855161
  0
TEXT
  8
Layer9$C$L9
 62
     3
 10
-101.5319398941
 20
111.8358367465
 40
2.4999949932
  1
24
 50
89.9999956743
 72
     5
 11
-101.5319395671
 21
116.1673343613
  0
ENDBLK
  8
Layer9$C$L9
  0
BLOCK
  8
Layer9$C$L9
  2
*D10
 70
     1
 10
0.0000000000
 20
0.0000000000
  0
LINE
  8
Layer9$C$L9
 62
     3
 10
-93.0319397298
 20
158.0015855161
 11
-93.2929921143
 21
156.0186957934
  0
LINE
  8
Layer9$C$L9
 62
     3
 10
-93.0319397298
 20
158.0015855161
 11
-92.7708873454
 21
156.0186957934
  0
LINE
  8
Layer9$C$L9
 62
     3
 10
-93.0319397298
 20
140.0015855161
 11
-92.7708873454
 21
141.9844752389
  0
LINE
  8
Layer9$C$L9
 62
     3
 10
-93.0319397298
 20
140.0015855161
 11
-93.2929921143
 21
141.9844752389
  0
LINE
  8
Layer9$C$L9
 62
     3
 10
-93.0319397298
 20
158.0015855161
 11
-93.0319397298
 21
140.0015855161
  0
LINE
  8
Layer9$C$L9
  6
GAP
 62
     3
 10
-86.5719396917
 20
158.0015855161
 11
-94.5319367496
 21
158.0015855161
  0
LINE
  8
Layer9$C$L9
  6
GAP
 62
     3
 10
-86.5719396917
 20
140.0015855161
 11
-94.5319367496
 21
140.0015855161
  0
POLYLINE
  8
Layer9$C$L9
 62
     3
 66
     1
 70
     1
  0
VERTEX
  8
Layer9$C$L9
 62
     3
 10
-93.8703714105
 20
145.7129956194
  0
VERTEX
  8
Layer9$C$L9
 62
     3
 10
-93.8703713208
 20
146.9004400067
  0
VERTEX
  8
Layer9$C$L9
 62
     3
 10
-95.3942908886
 20
146.9004401217
  0
VERTEX
  8
Layer9$C$L9
 62
     3
 10
-95.3942909783
 20
145.7129957345
  0
VERTEX
  8
Layer9$C$L9
 62
     3
 10
-93.8703714105
 20
145.7129956194
  0
SEQEND
  8
Layer9$C$L9
 62
     3
  0
LINE
  8
Layer9$C$L9
 62
     3
 10
-95.7385909305
 20
148.7939972639
 11
-95.4647158045
 21
148.5162095942
  0
LINE
  8
Layer9$C$L9
 62
     3
 10
-95.7385909305
 20
148.7939972639
 11
-93.4903694114
 21
148.7939970942
  0
POLYLINE
  8
Layer9$C$L9
 62
     3
 66
     1
 70
     4
 75
     6
  0
VERTEX
  8
Layer9$C$L9
 62
     3
 10
-94.8230652504
 20
151.2939921364
 70
    16
  0
VERTEX
  8
Layer9$C$L9
 62
     3
 10
-94.8230652504
 20
151.2939921364
 70
     8
  0
VERTEX
  8
Layer9$C$L9
 62
     3
 10
-94.8603562696
 20
151.5109526072
 70
     8
  0
VERTEX
  8
Layer9$C$L9
 62
     3
 10
-94.9585356075
 20
151.6659243775
 70
     8
  0
VERTEX
  8
Layer9$C$L9
 62
     3
 10
-95.0970626280
 20
151.7589074457
 70
     8
  0
VERTEX
  8
Layer9$C$L9
 62
     3
 10
-95.2553966950
 20
151.7899018102
 70
     8
  0
VERTEX
  8
Layer9$C$L9
 62
     3
 10
-95.4129971725
 20
151.7589074695
 70
     8
  0
VERTEX
  8
Layer9$C$L9
 62
     3
 10
-95.5493234246
 20
151.6659244221
 70
     8
  0
VERTEX
  8
Layer9$C$L9
 62
     3
 10
-95.6438348151
 20
151.5109526664
 70
     8
  0
VERTEX
  8
Layer9$C$L9
 62
     3
 10
-95.6759907081
 20
151.2939922008
 70
     8
  0
VERTEX
  8
Layer9$C$L9
 62
     3
 10
-94.8230652005
 20
151.9552049913
 70
    16
  0
VERTEX
  8
Layer9$C$L9
 62
     3
 10
-95.6916406666
 20
151.9552050568
 70
    16
  0
VERTEX
  8
Layer9$C$L9
 62
     3
 10
-95.6759907081
 20
151.2939922008
 70
    16
  0
SEQEND
  8
Layer9$C$L9
 62
     3
  0
POLYLINE
  8
Layer9$C$L9
 62
     3
 66
     1
 70
     4
 75
     6
  0
VERTEX
  8
Layer9$C$L9
 62
     3
 10
-94.8230652504
 20
151.2939921364
 70
    16
  0
VERTEX
  8
Layer9$C$L9
 62
     3
 10
-94.8230652504
 20
151.2939921364
 70
     8
  0
VERTEX
  8
Layer9$C$L9
 62
     3
 10
-94.8603563025
 20
151.0761089474
 70
     8
  0
VERTEX
  8
Layer9$C$L9
 62
     3
 10
-94.9585356638
 20
150.9206844268
 70
     8
  0
VERTEX
  8
Layer9$C$L9
 62
     3
 10
-95.0970626983
 20
150.8276154115
 70
     8
  0
VERTEX
  8
Layer9$C$L9
 62
     3
 10
-95.2553967699
 20
150.7967987382
 70
     8
  0
VERTEX
  8
Layer9$C$L9
 62
     3
 10
-95.4129972428
 20
150.8281312437
 70
     8
  0
VERTEX
  8
Layer9$C$L9
 62
     3
 10
-95.5493234808
 20
150.9215097648
 70
     8
  0
VERTEX
  8
Layer9$C$L9
 62
     3
 10
-95.6438348479
 20
151.0768311382
 70
     8
  0
VERTEX
  8
Layer9$C$L9
 62
     3
 10
-95.6759907081
 20
151.2939922008
 70
     8
  0
VERTEX
  8
Layer9$C$L9
 62
     3
 10
-94.8230653006
 20
150.6296003736
 70
    16
  0
VERTEX
  8
Layer9$C$L9
 62
     3
 10
-95.6916407665
 20
150.6325348158
 70
    16
  0
VERTEX
  8
Layer9$C$L9
 62
     3
 10
-95.6759907081
 20
151.2939922008
 70
    16
  0
SEQEND
  8
Layer9$C$L9
 62
     3
  0
POLYLINE
  8
Layer9$C$L9
 62
     3
 66
     1
 70
     4
 75
     6
  0
VERTEX
  8
Layer9$C$L9
 62
     3
 10
-93.5484454263
 20
151.2861670360
 70
    16
  0
VERTEX
  8
Layer9$C$L9
 62
     3
 10
-93.5484454263
 20
151.2861670360
 70
     8
  0
VERTEX
  8
Layer9$C$L9
 62
     3
 10
-93.5991171324
 20
151.5500011170
 70
     8
  0
VERTEX
  8
Layer9$C$L9
 62
     3
 10
-93.7428421090
 20
151.7396504972
 70
     8
  0
VERTEX
  8
Layer9$C$L9
 62
     3
 10
-93.9486159740
 20
151.8546566779
 70
     8
  0
VERTEX
  8
Layer9$C$L9
 62
     3
 10
-94.1854343453
 20
151.8945611606
 70
     8
  0
VERTEX
  8
Layer9$C$L9
 62
     3
 10
-94.4222928407
 20
151.8589054464
 70
     8
  0
VERTEX
  8
Layer9$C$L9
 62
     3
 10
-94.6281870781
 20
151.7472310368
 70
     8
  0
VERTEX
  8
Layer9$C$L9
 62
     3
 10
-94.7721126754
 20
151.5590794330
 70
     8
  0
VERTEX
  8
Layer9$C$L9
 62
     3
 10
-94.8230652504
 20
151.2939921364
 70
     8
  0
VERTEX
  8
Layer9$C$L9
 62
     3
 10
-93.5319394975
 20
152.0882299652
 70
    16
  0
VERTEX
  8
Layer9$C$L9
 62
     3
 10
-94.8387151976
 20
152.1038800722
 70
    16
  0
VERTEX
  8
Layer9$C$L9
 62
     3
 10
-94.8230652504
 20
151.2939921364
 70
    16
  0
SEQEND
  8
Layer9$C$L9
 62
     3
  0
POLYLINE
  8
Layer9$C$L9
 62
     3
 66
     1
 70
     4
 75
     6
  0
VERTEX
  8
Layer9$C$L9
 62
     3
 10
-93.5484454251
 20
151.3018170444
 70
    16
  0
VERTEX
  8
Layer9$C$L9
 62
     3
 10
-93.5484454251
 20
151.3018170444
 70
     8
  0
VERTEX
  8
Layer9$C$L9
 62
     3
 10
-93.5991171710
 20
151.0385847475
 70
     8
  0
VERTEX
  8
Layer9$C$L9
 62
     3
 10
-93.7428421762
 20
150.8492964549
 70
     8
  0
VERTEX
  8
Layer9$C$L9
 62
     3
 10
-93.9486160586
 20
150.7344450477
 70
     8
  0
VERTEX
  8
Layer9$C$L9
 62
     3
 10
-94.1854344359
 20
150.6945234072
 70
     8
  0
VERTEX
  8
Layer9$C$L9
 62
     3
 10
-94.4222929259
 20
150.7300244146
 70
     8
  0
VERTEX
  8
Layer9$C$L9
 62
     3
 10
-94.6281871465
 20
150.8414409511
 70
     8
  0
VERTEX
  8
Layer9$C$L9
 62
     3
 10
-94.7721127154
 20
151.0292658980
 70
     8
  0
VERTEX
  8
Layer9$C$L9
 62
     3
 10
-94.8230652504
 20
151.2939921364
 70
     8
  0
VERTEX
  8
Layer9$C$L9
 62
     3
 10
-93.5319396173
 20
150.5017103638
 70
    16
  0
VERTEX
  8
Layer9$C$L9
 62
     3
 10
-94.8387153199
 20
150.4850823285
 70
    16
  0
VERTEX
  8
Layer9$C$L9
 62
     3
 10
-94.8230652504
 20
151.2939921364
 70
    16
  0
SEQEND
  8
Layer9$C$L9
 62
     3
  0
ENDBLK
  8
Layer9$C$L9
  0
BLOCK
  8
Layer9$C$L9
  2
*D11
 70
     1
 10
0.0000000000
 20
0.0000000000
  0
LINE
  8
Layer9$C$L9
 62
     3
 10
-80.5567002342
 20
196.4015855161
 11
-80.8177526187
 21
194.4186957934
  0
LINE
  8
Layer9$C$L9
 62
     3
 10
-80.5567002342
 20
196.4015855161
 11
-80.2956478498
 21
194.4186957934
  0
LINE
  8
Layer9$C$L9
 62
     3
 10
-80.5567002342
 20
181.6015855161
 11
-80.2956478498
 21
183.5844752389
  0
LINE
  8
Layer9$C$L9
 62
     3
 10
-80.5567002342
 20
181.6015855161
 11
-80.8177526187
 21
183.5844752389
  0
LINE
  8
Layer9$C$L9
 62
     3
 10
-80.5567002342
 20
196.4015855161
 11
-80.5567002342
 21
181.6015855161
  0
LINE
  8
Layer9$C$L9
  6
GAP
 62
     3
 10
-67.5219396917
 20
196.4015855161
 11
-82.0566972540
 21
196.4015855161
  0
LINE
  8
Layer9$C$L9
  6
GAP
 62
     3
 10
-67.5219396917
 20
181.6015855161
 11
-82.0566972540
 21
181.6015855161
  0
TEXT
  8
Layer9$C$L9
 62
     3
 10
-81.0567005873
 20
184.3358418048
 40
2.4999949932
  1
14.8
 50
89.9999956743
 72
     5
 11
-81.0566998827
 21
193.6673293029
  0
ENDBLK
  8
Layer9$C$L9
  0
BLOCK
  8
Layer9$C$L9
  2
*D12
 70
     1
 10
0.0000000000
 20
0.0000000000
  0
LINE
  8
Layer9$C$L9
 62
     3
 10
-57.5399238942
 20
195.2348615721
 11
-59.1510531228
 21
194.0498457036
  0
LINE
  8
Layer9$C$L9
 62
     3
 10
-57.5399238942
 20
195.2348615721
 11
-58.7894505501
 21
193.6732332116
  0
LINE
  8
Layer9$C$L9
 62
     3
 10
-70.5239555655
 20
182.7683094602
 11
-68.9128263368
 21
183.9533253287
  0
LINE
  8
Layer9$C$L9
 62
     3
 10
-70.5239555655
 20
182.7683094602
 11
-69.2744289095
 21
184.3299378206
  0
LINE
  8
Layer9$C$L9
 62
     3
 10
-57.5399238942
 20
195.2348615721
 11
-70.5239555655
 21
182.7683094602
  0
LINE
  8
Layer9$C$L9
 62
     3
 10
-70.5239555655
 20
182.7683094602
 11
-80.0205686345
 21
173.6501846196
  0
TEXT
  8
Layer9$C$L9
 62
     3
 10
-79.4651947031
 20
174.8765832660
 40
2.4999949932
  1
%%c18
 50
43.8351807912
 72
     5
 11
-74.5734660061
 21
179.5733516252
  0
ENDBLK
  8
Layer9$C$L9
  0
BLOCK
  8
Layer9$C$L9
  2
*D13
 70
     1
 10
0.0000000000
 20
0.0000000000
  0
LINE
  8
Layer9$C$L9
 62
     3
 10
-58.6526354634
 20
199.7283317893
 11
-59.7748696165
 21
198.0728588945
  0
LINE
  8
Layer9$C$L9
 62
     3
 10
-58.6526354634
 20
199.7283317893
 11
-59.3081625012
 21
197.8388121936
  0
LINE
  8
Layer9$C$L9
 62
     3
 10
-69.4112439962
 20
178.2748392429
 11
-68.2890098431
 21
179.9303121378
  0
LINE
  8
Layer9$C$L9
 62
     3
 10
-69.4112439962
 20
178.2748392429
 11
-68.7557169584
 21
180.1643588387
  0
LINE
  8
Layer9$C$L9
 62
     3
 10
-58.6526354634
 20
199.7283317893
 11
-69.4112439962
 21
178.2748392429
  0
LINE
  8
Layer9$C$L9
 62
     3
 10
-69.4112439962
 20
178.2748392429
 11
-73.6588422003
 21
169.8048018646
  0
TEXT
  8
Layer9$C$L9
 62
     3
 10
-73.5454470645
 20
171.1463069478
 40
2.4999949932
  1
%%c24
 50
63.3669092701
 72
     5
 11
-70.5054705618
 21
177.2082526361
  0
ENDBLK
  8
Layer9$C$L9
  0
BLOCK
  8
Layer9$C$L9
  2
*D14
 70
     1
 10
0.0000000000
 20
0.0000000000
  0
LINE
  8
Layer9$C$L9
 62
     3
 10
-86.6907135415
 20
160.7539265724
 11
-87.8005889357
 21
162.4177103953
  0
LINE
  8
Layer9$C$L9
 62
     3
 10
-86.6907135415
 20
160.7539265724
 11
-88.1933897891
 21
162.0737614466
  0
LINE
  8
Layer9$C$L9
 62
     3
 10
-86.6907135415
 20
160.7539265724
 11
-94.3160725831
 21
169.4623338799
  0
TEXT
  8
Layer9$C$L9
 62
     3
 10
-93.1164358235
 20
168.8512965811
 40
2.4999949932
  1
4-
 50
311.2064160601
 72
     5
 11
-90.2629590594
 21
165.5925327137
  0
TEXT
  8
Layer9$C$L9
 62
     3
 10
-89.8225739260
 20
165.0895984763
 40
2.4999949932
  1
R1
 50
311.2064160601
 72
     5
 11
-86.9690971618
 21
161.8308346088
  0
ENDBLK
  8
Layer9$C$L9
  0
BLOCK
  8
Layer9$C$L9
  2
*D15
 70
     1
 10
0.0000000000
 20
0.0000000000
  0
LINE
  8
Layer9$C$L9
 62
     3
 10
-157.4144874604
 20
103.3015855161
 11
-157.1534350760
 21
105.2844752389
  0
LINE
  8
Layer9$C$L9
 62
     3
 10
-157.4144874604
 20
103.3015855161
 11
-157.6755398449
 21
105.2844752389
  0
LINE
  8
Layer9$C$L9
 62
     3
 10
-157.4144874604
 20
124.7015855161
 11
-157.6755398449
 21
122.7186957934
  0
LINE
  8
Layer9$C$L9
 62
     3
 10
-157.4144874604
 20
124.7015855161
 11
-157.1534350760
 21
122.7186957934
  0
LINE
  8
Layer9$C$L9
 62
     3
 10
-157.4144874604
 20
103.3015855161
 11
-157.4144874604
 21
124.7015855161
  0
LINE
  8
Layer9$C$L9
  6
GAP
 62
     3
 10
-153.9544874223
 20
103.3015855161
 11
-158.9144844802
 21
103.3015855161
  0
LINE
  8
Layer9$C$L9
  6
GAP
 62
     3
 10
-153.9544874223
 20
124.7015855161
 11
-158.9144844802
 21
124.7015855161
  0
TEXT
  8
Layer9$C$L9
 62
     3
 10
-157.9144878134
 20
109.3358415962
 40
2.4999949932
  1
21.4
 50
89.9999956743
 72
     5
 11
-157.9144871089
 21
118.6673290943
  0
ENDBLK
  8
Layer9$C$L9
  0
BLOCK
  8
Layer9$C$L9
  2
*D16
 70
     1
 10
0.0000000000
 20
0.0000000000
  0
LINE
  8
Layer9$C$L9
 62
     3
 10
-151.4144874604
 20
172.3015855161
 11
-153.3973771832
 21
172.0405331317
  0
LINE
  8
Layer9$C$L9
 62
     3
 10
-151.4144874604
 20
172.3015855161
 11
-153.3973771832
 21
172.5626379006
  0
LINE
  8
Layer9$C$L9
 62
     3
 10
-151.4144874604
 20
172.3015855161
 11
-155.9144874597
 21
172.3015855161
  0
LINE
  8
Layer9$C$L9
 62
     3
 10
-150.5144874604
 20
172.3015855161
 11
-148.5315977377
 21
172.5626379006
  0
LINE
  8
Layer9$C$L9
 62
     3
 10
-150.5144874604
 20
172.3015855161
 11
-148.5315977377
 21
172.0405331317
  0
LINE
  8
Layer9$C$L9
 62
     3
 10
-150.5144874604
 20
172.3015855161
 11
-146.0144874612
 21
172.3015855161
  0
LINE
  8
Layer9$C$L9
 62
     3
 10
-151.4144874604
 20
172.3015855161
 11
-150.5144874604
 21
172.3015855161
  0
LINE
  8
Layer9$C$L9
 62
     3
 10
-150.5144874604
 20
172.3015855161
 11
-140.4712427128
 21
172.3015855161
  0
LINE
  8
Layer9$C$L9
  6
GAP
 62
     3
 10
-151.4144874604
 20
175.7615855543
 11
-151.4144874604
 21
170.8015884964
  0
LINE
  8
Layer9$C$L9
  6
GAP
 62
     3
 10
-150.5144874604
 20
175.7615855543
 11
-150.5144874604
 21
170.8015884964
  0
TEXT
  8
Layer9$C$L9
 62
     3
 10
-148.5527327659
 20
172.8015855169
 40
2.4999949932
  1
0.9
 72
     5
 11
-141.7212402094
 21
172.8015855169
  0
ENDBLK
  8
Layer9$C$L9
  0
BLOCK
  8
Layer9$C$L9
  2
*D17
 70
     1
 10
0.0000000000
 20
0.0000000000
  0
LINE
  8
Layer9$C$L9
 62
     3
 10
-157.4144874604
 20
71.2265847765
 11
-157.1534350760
 21
73.2094744992
  0
LINE
  8
Layer9$C$L9
 62
     3
 10
-157.4144874604
 20
71.2265847765
 11
-157.6755398449
 21
73.2094744992
  0
LINE
  8
Layer9$C$L9
 62
     3
 10
-157.4144874604
 20
98.6265847765
 11
-157.6755398449
 21
96.6436950537
  0
LINE
  8
Layer9$C$L9
 62
     3
 10
-157.4144874604
 20
98.6265847765
 11
-157.1534350760
 21
96.6436950537
  0
LINE
  8
Layer9$C$L9
 62
     3
 10
-157.4144874604
 20
71.2265847765
 11
-157.4144874604
 21
98.6265847765
  0
LINE
  8
Layer9$C$L9
  6
GAP
 62
     3
 10
-153.9544874223
 20
71.2265847765
 11
-158.9144844802
 21
71.2265847765
  0
LINE
  8
Layer9$C$L9
  6
GAP
 62
     3
 10
-153.9544874223
 20
98.6265847765
 11
-158.9144844802
 21
98.6265847765
  0
TEXT
  8
Layer9$C$L9
 62
     3
 10
-157.9144878134
 20
80.2608408566
 40
2.4999949932
  1
27.4
 50
89.9999956743
 72
     5
 11
-157.9144871089
 21
89.5923283546
  0
ENDBLK
  8
Layer9$C$L9
  0
BLOCK
  8
Layer9$C$L9
  2
*D18
 70
     1
 10
0.0000000000
 20
0.0000000000
  0
LINE
  8
Layer9$C$L9
 62
     3
 10
-187.1819397298
 20
96.4265847765
 11
-187.4429921143
 21
94.4436950537
  0
LINE
  8
Layer9$C$L9
 62
     3
 10
-187.1819397298
 20
96.4265847765
 11
-186.9208873454
 21
94.4436950537
  0
LINE
  8
Layer9$C$L9
 62
     3
 10
-187.1819397298
 20
73.4265847765
 11
-186.9208873454
 21
75.4094744992
  0
LINE
  8
Layer9$C$L9
 62
     3
 10
-187.1819397298
 20
73.4265847765
 11
-187.4429921143
 21
75.4094744992
  0
LINE
  8
Layer9$C$L9
 62
     3
 10
-187.1819397298
 20
96.4265847765
 11
-187.1819397298
 21
73.4265847765
  0
LINE
  8
Layer9$C$L9
  6
GAP
 62
     3
 10
-183.7219396917
 20
96.4265847765
 11
-188.6819367496
 21
96.4265847765
  0
LINE
  8
Layer9$C$L9
  6
GAP
 62
     3
 10
-183.7219396917
 20
73.4265847765
 11
-188.6819367496
 21
73.4265847765
  0
TEXT
  8
Layer9$C$L9
 62
     3
 10
-187.6819396359
 20
82.7608360793
 40
2.4999949932
  1
23
 50
90.0000025045
 72
     5
 11
-187.6819398252
 21
87.0923336941
  0
ENDBLK
  8
Layer9$C$L9
  0
BLOCK
  8
Layer9$C$L9
  2
*D19
 70
     1
 10
0.0000000000
 20
0.0000000000
  0
LINE
  8
Layer9$C$L9
 62
     3
 10
-180.8819397298
 20
171.7015855161
 11
-178.8990500071
 21
171.9626379006
  0
LINE
  8
Layer9$C$L9
 62
     3
 10
-180.8819397298
 20
171.7015855161
 11
-178.8990500071
 21
171.4405331317
  0
LINE
  8
Layer9$C$L9
 62
     3
 10
-180.8819397298
 20
171.7015855161
 11
-176.3819397306
 21
171.7015855161
  0
LINE
  8
Layer9$C$L9
 62
     3
 10
-181.6819397298
 20
171.7015855161
 11
-183.6648294526
 21
171.4405331317
  0
LINE
  8
Layer9$C$L9
 62
     3
 10
-181.6819397298
 20
171.7015855161
 11
-183.6648294526
 21
171.9626379006
  0
LINE
  8
Layer9$C$L9
 62
     3
 10
-181.6819397298
 20
171.7015855161
 11
-186.1819397290
 21
171.7015855161
  0
LINE
  8
Layer9$C$L9
 62
     3
 10
-180.8819397298
 20
171.7015855161
 11
-181.6819397298
 21
171.7015855161
  0
LINE
  8
Layer9$C$L9
 62
     3
 10
-180.8819397298
 20
171.7015855161
 11
-170.9808984964
 21
171.7015855161
  0
LINE
  8
Layer9$C$L9
  6
GAP
 62
     3
 10
-180.8819397298
 20
175.9615855543
 11
-180.8819397298
 21
170.2015884964
  0
TEXT
  8
Layer9$C$L9
  6
GAP
 62
     3
 10
-179.0623885494
 20
172.2015855169
 40
2.4999949932
  1
0.8
 72
     5
 11
-172.2308959930
 21
172.2015855169
  0
ENDBLK
  8
Layer9$C$L9
  0
BLOCK
  8
Layer9$C$L9
  2
*D20
 70
     1
 10
0.0000000000
 20
0.0000000000
  0
LINE
  8
Layer9$C$L9
 62
     3
 10
-181.6819397298
 20
166.7009849266
 11
-179.6990500071
 21
166.4399325422
  0
LINE
  8
Layer9$C$L9
 62
     3
 10
-181.6819397298
 20
166.7009849266
 11
-179.6990500071
 21
166.9620373111
  0
LINE
  8
Layer9$C$L9
 62
     3
 10
-171.8819397298
 20
166.7009849266
 11
-173.8648294526
 21
166.9620373111
  0
LINE
  8
Layer9$C$L9
 62
     3
 10
-171.8819397298
 20
166.7009849266
 11
-173.8648294526
 21
166.4399325422
  0
LINE
  8
Layer9$C$L9
 62
     3
 10
-181.6819397298
 20
166.7009849266
 11
-171.8819397298
 21
166.7009849266
  0
LINE
  8
Layer9$C$L9
  6
GAP
 62
     3
 10
-181.6819397298
 20
176.1615855543
 11
-181.6819397298
 21
165.2009879069
  0
LINE
  8
Layer9$C$L9
  6
GAP
 62
     3
 10
-171.8819397298
 20
175.1615855543
 11
-171.8819397298
 21
165.2009879069
  0
TEXT
  8
Layer9$C$L9
 62
     3
 10
-180.1976860080
 20
167.2009849274
 40
2.4999949932
  1
9.8
 72
     5
 11
-173.3661934516
 21
167.2009849274
  0
ENDBLK
  8
Layer9$C$L9
  0
BLOCK
  8
Layer9$C$L9
  2
*D21
 70
     1
 10
0.0000000000
 20
0.0000000000
  0
LINE
  8
Layer9$C$L9
 62
     3
 10
-187.6819397298
 20
200.3015855161
 11
-187.9429921143
 21
198.3186957934
  0
LINE
  8
Layer9$C$L9
 62
     3
 10
-187.6819397298
 20
200.3015855161
 11
-187.4208873454
 21
198.3186957934
  0
LINE
  8
Layer9$C$L9
 62
     3
 10
-187.6819397298
 20
177.7015855161
 11
-187.4208873454
 21
179.6844752389
  0
LINE
  8
Layer9$C$L9
 62
     3
 10
-187.6819397298
 20
177.7015855161
 11
-187.9429921143
 21
179.6844752389
  0
LINE
  8
Layer9$C$L9
 62
     3
 10
-187.6819397298
 20
200.3015855161
 11
-187.6819397298
 21
177.7015855161
  0
LINE
  8
Layer9$C$L9
  6
GAP
 62
     3
 10
-183.2219396917
 20
200.3015855161
 11
-189.1819367496
 21
200.3015855161
  0
LINE
  8
Layer9$C$L9
  6
GAP
 62
     3
 10
-183.2219396917
 20
177.7015855161
 11
-189.1819367496
 21
177.7015855161
  0
TEXT
  8
Layer9$C$L9
 62
     3
 10
-188.1819400828
 20
184.3358418048
 40
2.4999949932
  1
22.6
 50
89.9999956743
 72
     5
 11
-188.1819393783
 21
193.6673293029
  0
ENDBLK
  8
Layer9$C$L9
  0
BLOCK
  8
Layer9$C$L9
  2
*D22
 70
     1
 10
0.0000000000
 20
0.0000000000
  0
LINE
  8
Layer9$C$L9
 62
     3
 10
-138.2819397298
 20
97.9265847765
 11
-138.5429921143
 21
95.9436950537
  0
LINE
  8
Layer9$C$L9
 62
     3
 10
-138.2819397298
 20
97.9265847765
 11
-138.0208873454
 21
95.9436950537
  0
LINE
  8
Layer9$C$L9
 62
     3
 10
-138.2819397298
 20
71.9265847765
 11
-138.0208873454
 21
73.9094744992
  0
LINE
  8
Layer9$C$L9
 62
     3
 10
-138.2819397298
 20
71.9265847765
 11
-138.5429921143
 21
73.9094744992
  0
LINE
  8
Layer9$C$L9
 62
     3
 10
-138.2819397298
 20
97.9265847765
 11
-138.2819397298
 21
71.9265847765
  0
LINE
  8
Layer9$C$L9
  6
GAP
 62
     3
 10
-134.8219396917
 20
97.9265847765
 11
-139.7819367496
 21
97.9265847765
  0
LINE
  8
Layer9$C$L9
  6
GAP
 62
     3
 10
-134.8219396917
 20
71.9265847765
 11
-139.7819367496
 21
71.9265847765
  0
TEXT
  8
Layer9$C$L9
 62
     3
 10
-138.7819398941
 20
82.7608363684
 40
2.4999949932
  1
26
 50
89.9999956743
 72
     5
 11
-138.7819395671
 21
87.0923339832
  0
ENDBLK
  8
Layer9$C$L9
  0
BLOCK
  8
Layer9$C$L9
  2
*D23
 70
     1
 10
0.0000000000
 20
0.0000000000
  0
LINE
  8
Layer9$C$L9
 62
     3
 10
-138.2819397298
 20
124.0015855161
 11
-138.5429921143
 21
122.0186957934
  0
LINE
  8
Layer9$C$L9
 62
     3
 10
-138.2819397298
 20
124.0015855161
 11
-138.0208873454
 21
122.0186957934
  0
LINE
  8
Layer9$C$L9
 62
     3
 10
-138.2819397298
 20
104.0015855161
 11
-138.0208873454
 21
105.9844752389
  0
LINE
  8
Layer9$C$L9
 62
     3
 10
-138.2819397298
 20
104.0015855161
 11
-138.5429921143
 21
105.9844752389
  0
LINE
  8
Layer9$C$L9
 62
     3
 10
-138.2819397298
 20
124.0015855161
 11
-138.2819397298
 21
104.0015855161
  0
LINE
  8
Layer9$C$L9
  6
GAP
 62
     3
 10
-134.8219396917
 20
124.0015855161
 11
-139.7819367496
 21
124.0015855161
  0
LINE
  8
Layer9$C$L9
  6
GAP
 62
     3
 10
-134.8219396917
 20
104.0015855161
 11
-139.7819367496
 21
104.0015855161
  0
TEXT
  8
Layer9$C$L9
 62
     3
 10
-138.7819398941
 20
111.8358371428
 40
2.4999949932
  1
20
 50
89.9999956743
 72
     5
 11
-138.7819395671
 21
116.1673347576
  0
ENDBLK
  8
Layer9$C$L9
  0
BLOCK
  8
Layer9$C$L9
  2
*D24
 70
     1
 10
0.0000000000
 20
0.0000000000
  0
LINE
  8
Layer9$C$L9
 62
     3
 10
-138.2819397298
 20
199.0015855161
 11
-138.5429921143
 21
197.0186957934
  0
LINE
  8
Layer9$C$L9
 62
     3
 10
-138.2819397298
 20
199.0015855161
 11
-138.0208873454
 21
197.0186957934
  0
LINE
  8
Layer9$C$L9
 62
     3
 10
-138.2819397298
 20
179.0015855161
 11
-138.0208873454
 21
180.9844752389
  0
LINE
  8
Layer9$C$L9
 62
     3
 10
-138.2819397298
 20
179.0015855161
 11
-138.5429921143
 21
180.9844752389
  0
LINE
  8
Layer9$C$L9
 62
     3
 10
-138.2819397298
 20
199.0015855161
 11
-138.2819397298
 21
179.0015855161
  0
LINE
  8
Layer9$C$L9
  6
GAP
 62
     3
 10
-134.8219396917
 20
199.0015855161
 11
-139.7819367496
 21
199.0015855161
  0
LINE
  8
Layer9$C$L9
  6
GAP
 62
     3
 10
-134.8219396917
 20
179.0015855161
 11
-139.7819367496
 21
179.0015855161
  0
TEXT
  8
Layer9$C$L9
 62
     3
 10
-138.7819399866
 20
185.6108398857
 40
2.4999949932
  1
%%c
 50
89.9999956743
 72
     5
 11
-138.7819398521
 21
187.3923426600
  0
TEXT
  8
Layer9$C$L9
 62
     3
 10
-138.7819398016
 20
188.0608349285
 40
2.4999949932
  1
20
 50
89.9999956743
 72
     5
 11
-138.7819394746
 21
192.3923325433
  0
ENDBLK
  8
Layer9$C$L9
  0
BLOCK
  8
Layer9$C$L9
  2
*D25
 70
     1
 10
0.0000000000
 20
0.0000000000
  0
LINE
  8
Layer9$C$L9
 62
     3
 10
-187.6819397298
 20
200.3015855161
 11
-187.9429921143
 21
198.3186957934
  0
LINE
  8
Layer9$C$L9
 62
     3
 10
-187.6819397298
 20
200.3015855161
 11
-187.4208873454
 21
198.3186957934
  0
LINE
  8
Layer9$C$L9
 62
     3
 10
-187.6819397298
 20
177.7015855161
 11
-187.4208873454
 21
179.6844752389
  0
LINE
  8
Layer9$C$L9
 62
     3
 10
-187.6819397298
 20
177.7015855161
 11
-187.9429921143
 21
179.6844752389
  0
LINE
  8
Layer9$C$L9
 62
     3
 10
-187.6819397298
 20
200.3015855161
 11
-187.6819397298
 21
177.7015855161
  0
TEXT
  8
Layer9$C$L9
  6
GAP
 62
     3
 10
-188.1819400828
 20
184.3358418048
 40
2.4999949932
  1
22.6
 50
89.9999956743
 72
     5
 11
-188.1819393783
 21
193.6673293029
  0
ENDBLK
  8
Layer9$C$L9
  0
BLOCK
  8
Layer9$C$L9
  2
*D26
 70
     1
 10
0.0000000000
 20
0.0000000000
  0
LINE
  8
Layer9$C$L9
 62
     3
 10
-121.7819397298
 20
166.0015855161
 11
-119.7990500071
 21
166.2626379006
  0
LINE
  8
Layer9$C$L9
 62
     3
 10
-121.7819397298
 20
166.0015855161
 11
-119.7990500071
 21
165.7405331317
  0
LINE
  8
Layer9$C$L9
 62
     3
 10
-121.7819397298
 20
166.0015855161
 11
-117.2819397306
 21
166.0015855161
  0
LINE
  8
Layer9$C$L9
 62
     3
 10
-123.7819397298
 20
166.0015855161
 11
-125.7648294526
 21
165.7405331317
  0
LINE
  8
Layer9$C$L9
 62
     3
 10
-123.7819397298
 20
166.0015855161
 11
-125.7648294526
 21
166.2626379006
  0
LINE
  8
Layer9$C$L9
 62
     3
 10
-123.7819397298
 20
166.0015855161
 11
-128.2819397290
 21
166.0015855161
  0
LINE
  8
Layer9$C$L9
 62
     3
 10
-121.7819397298
 20
166.0015855161
 11
-123.7819397298
 21
166.0015855161
  0
LINE
  8
Layer9$C$L9
 62
     3
 10
-121.7819397298
 20
166.0015855161
 11
-113.7809773069
 21
166.0015855161
  0
LINE
  8
Layer9$C$L9
  6
GAP
 62
     3
 10
-121.7819397298
 20
176.4615855543
 11
-121.7819397298
 21
164.5015884964
  0
TEXT
  8
Layer9$C$L9
  6
GAP
 62
     3
 10
-116.8624776296
 20
166.5015854368
 40
2.4999949932
  1
2
 72
     5
 11
-115.0309749565
 21
166.5015855969
  0
ENDBLK
  8
Layer9$C$L9
  0
BLOCK
  8
Layer9$C$L9
  2
*D27
 70
     1
 10
0.0000000000
 20
0.0000000000
  0
LINE
  8
Layer9$C$L9
 62
     3
 10
-123.7819397298
 20
166.0015855161
 11
-125.7648294526
 21
166.2626379006
  0
LINE
  8
Layer9$C$L9
 62
     3
 10
-123.7819397298
 20
166.0015855161
 11
-125.7648294526
 21
165.7405331317
  0
LINE
  8
Layer9$C$L9
 62
     3
 10
-132.2819397298
 20
166.0015855161
 11
-130.2990500071
 21
165.7405331317
  0
LINE
  8
Layer9$C$L9
 62
     3
 10
-132.2819397298
 20
166.0015855161
 11
-130.2990500071
 21
166.2626379006
  0
LINE
  8
Layer9$C$L9
 62
     3
 10
-123.7819397298
 20
166.0015855161
 11
-132.2819397298
 21
166.0015855161
  0
LINE
  8
Layer9$C$L9
  6
GAP
 62
     3
 10
-123.7819397298
 20
174.4615855543
 11
-123.7819397298
 21
164.5015884964
  0
LINE
  8
Layer9$C$L9
  6
GAP
 62
     3
 10
-132.2819397298
 20
176.4615855543
 11
-132.2819397298
 21
164.5015884964
  0
TEXT
  8
Layer9$C$L9
 62
     3
 10
-131.4476862047
 20
166.5015852183
 40
2.4999949932
  1
8.5
 72
     5
 11
-124.6161936483
 21
166.5015858155
  0
ENDBLK
  8
Layer9$C$L9
  0
BLOCK
  8
Layer9$C$L9
  2
*D28
 70
     1
 10
0.0000000000
 20
0.0000000000
  0
LINE
  8
Layer9$C$L9
 62
     3
 10
-138.2819397298
 20
159.0015855161
 11
-138.5429921143
 21
157.0186957934
  0
LINE
  8
Layer9$C$L9
 62
     3
 10
-138.2819397298
 20
159.0015855161
 11
-138.0208873454
 21
157.0186957934
  0
LINE
  8
Layer9$C$L9
 62
     3
 10
-138.2819397298
 20
139.0015855161
 11
-138.0208873454
 21
140.9844752389
  0
LINE
  8
Layer9$C$L9
 62
     3
 10
-138.2819397298
 20
139.0015855161
 11
-138.5429921143
 21
140.9844752389
  0
LINE
  8
Layer9$C$L9
 62
     3
 10
-138.2819397298
 20
159.0015855161
 11
-138.2819397298
 21
139.0015855161
  0
LINE
  8
Layer9$C$L9
  6
GAP
 62
     3
 10
-134.8219396917
 20
159.0015855161
 11
-139.7819367496
 21
159.0015855161
  0
LINE
  8
Layer9$C$L9
  6
GAP
 62
     3
 10
-134.8219396917
 20
139.0015855161
 11
-139.7819367496
 21
139.0015855161
  0
POLYLINE
  8
Layer9$C$L9
 62
     3
 66
     1
 70
     1
  0
VERTEX
  8
Layer9$C$L9
 62
     3
 10
-139.1203714105
 20
145.7129958837
  0
VERTEX
  8
Layer9$C$L9
 62
     3
 10
-139.1203713208
 20
146.9004402709
  0
VERTEX
  8
Layer9$C$L9
 62
     3
 10
-140.6442908886
 20
146.9004403860
  0
VERTEX
  8
Layer9$C$L9
 62
     3
 10
-140.6442909783
 20
145.7129959987
  0
VERTEX
  8
Layer9$C$L9
 62
     3
 10
-139.1203714105
 20
145.7129958837
  0
SEQEND
  8
Layer9$C$L9
 62
     3
  0
POLYLINE
  8
Layer9$C$L9
 62
     3
 66
     1
 70
     4
 75
     6
  0
VERTEX
  8
Layer9$C$L9
 62
     3
 10
-140.4956156201
 20
149.4004353164
 70
    16
  0
VERTEX
  8
Layer9$C$L9
 62
     3
 10
-140.4956156201
 20
149.4004353164
 70
     8
  0
VERTEX
  8
Layer9$C$L9
 62
     3
 10
-140.3410106556
 20
149.3840899102
 70
     8
  0
VERTEX
  8
Layer9$C$L9
 62
     3
 10
-140.1999771849
 20
149.3378963933
 70
     8
  0
VERTEX
  8
Layer9$C$L9
 62
     3
 10
-140.0725152079
 20
149.2661187817
 70
     8
  0
VERTEX
  8
Layer9$C$L9
 62
     3
 10
-139.9586247241
 20
149.1730210913
 70
     8
  0
VERTEX
  8
Layer9$C$L9
 62
     3
 10
-139.8583057333
 20
149.0628673381
 70
     8
  0
VERTEX
  8
Layer9$C$L9
 62
     3
 10
-139.7715582351
 20
148.9399215380
 70
     8
  0
VERTEX
  8
Layer9$C$L9
 62
     3
 10
-139.6983822292
 20
148.8084477071
 70
     8
  0
VERTEX
  8
Layer9$C$L9
 62
     3
 10
-139.6387777152
 20
148.6727098612
 70
     8
  0
VERTEX
  8
Layer9$C$L9
 62
     3
 10
-140.0652403892
 20
149.4004352839
 70
    16
  0
VERTEX
  8
Layer9$C$L9
 62
     3
 10
-139.7796277633
 20
149.0365725671
 70
    16
  0
VERTEX
  8
Layer9$C$L9
 62
     3
 10
-139.6387777152
 20
148.6727098612
 70
    16
  0
SEQEND
  8
Layer9$C$L9
 62
     3
  0
POLYLINE
  8
Layer9$C$L9
 62
     3
 66
     1
 70
     4
 75
     6
  0
VERTEX
  8
Layer9$C$L9
 62
     3
 10
-139.6387777152
 20
148.6727098612
 70
    16
  0
VERTEX
  8
Layer9$C$L9
 62
     3
 10
-139.6387777152
 20
148.6727098612
 70
     8
  0
VERTEX
  8
Layer9$C$L9
 62
     3
 10
-139.5721123543
 20
148.5822389763
 70
     8
  0
VERTEX
  8
Layer9$C$L9
 62
     3
 10
-139.4839893644
 20
148.4946451543
 70
     8
  0
VERTEX
  8
Layer9$C$L9
 62
     3
 10
-139.3793605058
 20
148.4127596105
 70
     8
  0
VERTEX
  8
Layer9$C$L9
 62
     3
 10
-139.2631775388
 20
148.3394135602
 70
     8
  0
VERTEX
  8
Layer9$C$L9
 62
     3
 10
-139.1403922237
 20
148.2774382186
 70
     8
  0
VERTEX
  8
Layer9$C$L9
 62
     3
 10
-139.0159563207
 20
148.2296648010
 70
     8
  0
VERTEX
  8
Layer9$C$L9
 62
     3
 10
-138.8948215900
 20
148.1989245227
 70
     8
  0
VERTEX
  8
Layer9$C$L9
 62
     3
 10
-138.7819397920
 20
148.1880485989
 70
     8
  0
VERTEX
  8
Layer9$C$L9
 62
     3
 10
-139.4940151559
 20
148.4301347201
 70
    16
  0
VERTEX
  8
Layer9$C$L9
 62
     3
 10
-139.0675524453
 20
148.1880486204
 70
    16
  0
VERTEX
  8
Layer9$C$L9
 62
     3
 10
-138.7819397920
 20
148.1880485989
 70
    16
  0
SEQEND
  8
Layer9$C$L9
 62
     3
  0
LINE
  8
Layer9$C$L9
 62
     3
 10
-138.7819397920
 20
148.1880485989
 11
-138.7819397005
 21
149.4004351870
  0
POLYLINE
  8
Layer9$C$L9
 62
     3
 66
     1
 70
     4
 75
     6
  0
VERTEX
  8
Layer9$C$L9
 62
     3
 10
-140.4956157116
 20
148.1880487283
 70
    16
  0
VERTEX
  8
Layer9$C$L9
 62
     3
 10
-140.4956157116
 20
148.1880487283
 70
     8
  0
VERTEX
  8
Layer9$C$L9
 62
     3
 10
-140.7035896474
 20
148.2401434802
 70
     8
  0
VERTEX
  8
Layer9$C$L9
 62
     3
 10
-140.8521424512
 20
148.3774841596
 70
     8
  0
VERTEX
  8
Layer9$C$L9
 62
     3
 10
-140.9412741250
 20
148.5716554558
 70
     8
  0
VERTEX
  8
Layer9$C$L9
 62
     3
 10
-140.9709846710
 20
148.7942420582
 70
     8
  0
VERTEX
  8
Layer9$C$L9
 62
     3
 10
-140.9412740914
 20
149.0168286561
 70
     8
  0
VERTEX
  8
Layer9$C$L9
 62
     3
 10
-140.8521423882
 20
149.2109999389
 70
     8
  0
VERTEX
  8
Layer9$C$L9
 62
     3
 10
-140.7035895638
 20
149.3483405959
 70
     8
  0
VERTEX
  8
Layer9$C$L9
 62
     3
 10
-140.4956156201
 20
149.4004353164
 70
     8
  0
VERTEX
  8
Layer9$C$L9
 62
     3
 10
-141.1294410518
 20
148.1880487761
 70
    16
  0
VERTEX
  8
Layer9$C$L9
 62
     3
 10
-141.1294409603
 20
149.4004353642
 70
    16
  0
VERTEX
  8
Layer9$C$L9
 62
     3
 10
-140.4956156201
 20
149.4004353164
 70
    16
  0
SEQEND
  8
Layer9$C$L9
 62
     3
  0
POLYLINE
  8
Layer9$C$L9
 62
     3
 66
     1
 70
     4
 75
     6
  0
VERTEX
  8
Layer9$C$L9
 62
     3
 10
-140.9259907081
 20
151.2939924651
 70
    16
  0
VERTEX
  8
Layer9$C$L9
 62
     3
 10
-140.9259907081
 20
151.2939924651
 70
     8
  0
VERTEX
  8
Layer9$C$L9
 62
     3
 10
-140.8338634624
 20
151.0234337680
 70
     8
  0
VERTEX
  8
Layer9$C$L9
 62
     3
 10
-140.5909825025
 20
150.8301775424
 70
     8
  0
VERTEX
  8
Layer9$C$L9
 62
     3
 10
-140.2475990646
 20
150.7142237922
 70
     8
  0
VERTEX
  8
Layer9$C$L9
 62
     3
 10
-139.8539643847
 20
150.6755725210
 70
     8
  0
VERTEX
  8
Layer9$C$L9
 62
     3
 10
-139.4603296991
 20
150.7142237327
 70
     8
  0
VERTEX
  8
Layer9$C$L9
 62
     3
 10
-139.1169462437
 20
150.8301774311
 70
     8
  0
VERTEX
  8
Layer9$C$L9
 62
     3
 10
-138.8740652546
 20
151.0234336200
 70
     8
  0
VERTEX
  8
Layer9$C$L9
 62
     3
 10
-138.7819379680
 20
151.2939923032
 70
     8
  0
VERTEX
  8
Layer9$C$L9
 62
     3
 10
-140.9259907704
 20
150.4694326476
 70
    16
  0
VERTEX
  8
Layer9$C$L9
 62
     3
 10
-138.7819380302
 20
150.4694324857
 70
    16
  0
VERTEX
  8
Layer9$C$L9
 62
     3
 10
-138.7819379680
 20
151.2939923032
 70
    16
  0
SEQEND
  8
Layer9$C$L9
 62
     3
  0
POLYLINE
  8
Layer9$C$L9
 62
     3
 66
     1
 70
     4
 75
     6
  0
VERTEX
  8
Layer9$C$L9
 62
     3
 10
-140.9259907081
 20
151.2939924651
 70
    16
  0
VERTEX
  8
Layer9$C$L9
 62
     3
 10
-140.9259907081
 20
151.2939924651
 70
     8
  0
VERTEX
  8
Layer9$C$L9
 62
     3
 10
-140.8338634215
 20
151.5648720957
 70
     8
  0
VERTEX
  8
Layer9$C$L9
 62
     3
 10
-140.5909824324
 20
151.7583575327
 70
     8
  0
VERTEX
  8
Layer9$C$L9
 62
     3
 10
-140.2475989770
 20
151.8744487800
 70
     8
  0
VERTEX
  8
Layer9$C$L9
 62
     3
 10
-139.8539642913
 20
151.9131458414
 70
     8
  0
VERTEX
  8
Layer9$C$L9
 62
     3
 10
-139.4603296115
 20
151.8744487206
 70
     8
  0
VERTEX
  8
Layer9$C$L9
 62
     3
 10
-139.1169461736
 20
151.7583574214
 70
     8
  0
VERTEX
  8
Layer9$C$L9
 62
     3
 10
-138.8740652137
 20
151.5648719477
 70
     8
  0
VERTEX
  8
Layer9$C$L9
 62
     3
 10
-138.7819379680
 20
151.2939923032
 70
     8
  0
VERTEX
  8
Layer9$C$L9
 62
     3
 10
-140.9259906458
 20
152.1195304081
 70
    16
  0
VERTEX
  8
Layer9$C$L9
 62
     3
 10
-138.7819379057
 20
152.1195302462
 70
    16
  0
VERTEX
  8
Layer9$C$L9
 62
     3
 10
-138.7819379680
 20
151.2939923032
 70
    16
  0
SEQEND
  8
Layer9$C$L9
 62
     3
  0
ENDBLK
  8
Layer9$C$L9
  0
ENDSEC
  0
SECTION
  2
ENTITIES
  0
TEXT
  8
Layer8$C$L8
 62
     5
 10
-37.9381486441
 20
4.9881936996
 40
2.9999941014
  1
MA4-H01811
 41
0.8595006237
 72
     5
 11
-14.7316774332
 21
4.9881936996
  0
TEXT
  8
Layer8$C$L8
 10
-37.0894416525
 20
14.0276385499
 40
2.9999941014
  1
LA9Z-##1#
 41
0.8683128684
 72
     5
 11
-16.2499737864
 21
14.0276385499
  0
TEXT
  8
Layer8$C$L8
 62
     3
 10
-116.5463429597
 20
82.6896420596
 40
2.9999941014
  1
俶倧倲倕丂侾乯丂俷倲倛倕倰丂倫倕倰倖倧倰倣倎値們倕丂倱倫倕們倝倖倝們倎倲倝倧値倱
 41
0.2770321804
 72
     5
 11
-50.8898452945
 21
82.6896420596
  0
TEXT
  8
Layer8$C$L8
 62
     3
 10
-115.7225330017
 20
84.1896391103
 40
2.9999941014
  1

 72
     5
 11
-115.7225330017
 21
84.1896391103
  0
TEXT
  8
Layer8$C$L8
 62
     3
 10
-116.5463429597
 20
78.1896420417
 40
2.9999941014
  1
丂丂丂丂丂丂丂丂俴俇乛俙俇丂倱倕倰倝倕倱丂倝倱丂倛倎倴倝値倗丂倲倛倕
 41
0.2777542676
 72
     5
 11
-60.7178449340
 21
78.1896420417
  0
TEXT
  8
Layer8$C$L8
 62
     3
 10
-115.7225330017
 20
84.1896391103
 40
2.9999941014
  1

 72
     5
 11
-115.7225330017
 21
84.1896391103
  0
TEXT
  8
Layer8$C$L8
 62
     3
 10
-116.5463429597
 20
73.6896420238
 40
2.9999941014
  1
丂丂丂丂丂丂丂丂倫倕倰倖倧倰倣倎値們倕丂倱倫倕們倝倖倝們倎倲倝倧値倱丏
 41
0.2776164780
 72
     5
 11
-59.0798449941
 21
73.6896420238
  0
TEXT
  8
Layer8$C$L8
 62
     3
 10
-116.5463429597
 20
67.6896420596
 40
2.9999941014
  1
俶倧倲倕丂俀乯丂俿倛倕丂倫倰倧倓倳們倲丆倖倢倎倲丂倐倕倸倕倢丆倗倎倱倠倕倲丆
 41
0.2772472019
 72
     5
 11
-54.1658451743
 21
67.6896420596
  0
TEXT
  8
Layer8$C$L8
 62
     3
 10
-115.7225330017
 20
69.1896391103
 40
2.9999941014
  1

 72
     5
 11
-115.7225330017
 21
69.1896391103
  0
TEXT
  8
Layer8$C$L8
 62
     3
 10
-116.5463429597
 20
63.1896420417
 40
2.9999941014
  1
丂丂丂丂丂丂丂丂倎値倲倝亅倰倧倲倎倲倝倧値丂倰倝値倗丂倝値丂倧値倕丂倱倕倲丏
 41
0.2772472019
 72
     5
 11
-54.1658451743
 21
63.1896420417
  0
TEXT
  8
Layer8$C$L8
 62
     3
 10
-84.0938495221
 20
129.7015884654
 40
2.9999941014
  1
俼倕們倲倎値倗倳倢倎倰
 41
0.2881672239
 72
     5
 11
-65.9393501146
 21
129.7015884654
  0
LINE
  8
Layer1$C$L1
 62
     3
 10
-65.1204959549
 20
129.0015855161
 11
-84.9433835048
 21
129.0015855161
  0
LINE
  8
Layer1$C$L1
 62
     3
 10
-69.1204959549
 20
164.0015855161
 11
-80.9433835048
 21
164.0015855161
  0
TEXT
  8
Layer8$C$L8
 62
     3
 10
-79.9747993084
 20
164.7015884654
 40
2.9999941014
  1
俽倯倳倎倰倕
 41
0.3019551303
 72
     5
 11
-70.0102996004
 21
164.7015884654
  0
TEXT
  8
Layer8$C$L8
 62
     3
 10
-107.0112007312
 20
205.7015884654
 40
2.9999941014
  1
俼倧倳値倓丂俵倕倲倎倢
 41
0.2881672239
 72
     5
 11
-88.8567013236
 21
205.7015884654
  0
LINE
  8
Layer1$C$L1
 62
     3
 10
-88.0378471639
 20
205.0015855161
 11
-107.8607347138
 21
205.0015855161
  0
LINE
  8
Layer1$C$L1
 62
     3
 10
-58.1204959549
 20
205.0015855161
 11
-69.9433835048
 21
205.0015855161
  0
TEXT
  8
Layer8$C$L8
 62
     3
 10
-68.1509896046
 20
205.7015884654
 40
2.9999941014
  1
俼倧倳値倓
 41
0.3083894867
 72
     5
 11
-59.8244898365
 21
205.7015884654
  0
TEXT
  8
Layer8$C$L8
 62
     3
 10
-137.0938495221
 20
206.5691361905
 40
2.9999941014
  1
俥倢倎倲丂俥倢倎値倗倕
 41
0.2881672239
 72
     5
 11
-118.9393501146
 21
206.5691361905
  0
LINE
  8
Layer1$C$L1
 62
     3
 10
-138.0631083769
 20
205.8691333845
 11
-118.0007710827
 21
205.8691333845
  0
TEXT
  8
Layer8$C$L8
 62
     3
 10
-158.9107303945
 20
206.5691363337
 40
2.9999941014
  1
俧倎倱倠倕倲
 41
0.3019551313
 72
     5
 11
-148.9462306539
 21
206.5691363337
  0
TEXT
  8
Layer8$C$L8
 62
     3
 10
-193.9721751743
 20
206.5790235700
 40
2.9999941014
  1
俙値倲倝亅俼倧倲倎倲倝倧値丂俼倝値倗
 41
0.2821005450
 72
     5
 11
-164.3516761873
 21
206.5790235700
  0
LINE
  8
Layer1$C$L1
 62
     3
 10
-148.0564270410
 20
205.8691333845
 11
-159.8793145909
 21
205.8691333845
  0
LINE
  8
Layer1$C$L1
 62
     3
 10
-195.1747644078
 20
205.8790207640
 11
-163.1124271136
 21
205.8790207640
  0
DIMENSION
  8
Layer9$C$L9
 62
     3
  2
*D0
 70
     3
 10
-104.8362980367
 20
183.1108548287
 11
-110.7901736946
 21
177.9564116814
 15
-91.2275814229
 25
194.8923162035
  0
DIMENSION
  8
Layer9$C$L9
 62
     3
  2
*D1
 70
     3
 10
-103.9516193802
 20
178.5633197197
 11
-106.4723986411
 21
174.1183893362
 15
-92.1122600794
 25
199.4398513125
  0
LINE
  8
Layer1$C$L1
  6
CENTER
 62
     3
 10
-98.0319397298
 20
175.5015855161
 11
-98.0319397298
 21
202.5015855161
  0
LINE
  8
Layer1$C$L1
  6
CENTER
 62
     3
 10
-111.5319397298
 20
189.0015855161
 11
-84.5319397298
 21
189.0015855161
  0
CIRCLE
  8
Layer1$C$L1
 62
     3
 10
-98.0319397298
 20
189.0015855161
 40
9.0000000000
  0
CIRCLE
  8
Layer1$C$L1
 62
     3
 10
-98.0319397298
 20
189.0015855161
 40
10.0000000000
  0
CIRCLE
  8
Layer1$C$L1
 62
     3
 10
-98.0319397298
 20
189.0015855161
 40
12.0000000000
  0
CIRCLE
  8
Layer1$C$L1
 62
     3
 10
-98.0319397298
 20
189.0015855161
 40
9.2000000000
  0
DIMENSION
  8
Layer9$C$L9
 62
     3
  2
*D2
 70
     1
 10
-98.0319397298
 20
161.0015855161
 11
-98.0319397298
 21
149.0015854952
 13
-86.0319397298
 23
137.0015855161
 14
-86.0319397298
 24
161.0015855161
 50
90.0000000000
  0
DIMENSION
  8
Layer9$C$L9
 62
     3
  2
*D3
 70
     1
  1
%%c<>
 10
-157.4144874604
 20
199.7015855161
 11
-159.1644849578
 21
189.0015855717
 13
-151.4144874604
 23
178.3015855161
 14
-151.4144874604
 24
199.7015855161
 50
90.0000000000
  0
DIMENSION
  8
Layer9$C$L9
 62
     3
  2
*D4
 70
     1
 10
-157.4144874604
 20
159.7015855161
 11
-157.4144874604
 21
149.0015853631
 13
-151.4144874604
 23
138.3015855161
 14
-151.4144874604
 24
159.7015855161
 50
90.0000000000
  0
DIMENSION
  8
Layer9$C$L9
 62
     3
  2
*D5
 70
     4
  1
4-<>
 10
-89.0319397298
 20
103.0015855161
 11
-96.7240490909
 21
97.9942753306
 15
-89.7506187701
 25
102.3062435592
  0
DIMENSION
  8
Layer9$C$L9
 62
     3
  2
*D6
 70
     1
 10
-63.0319397298
 20
96.0015855161
 11
-75.0319398828
 21
96.0015855161
 13
-87.0319397298
 23
105.0015855161
 14
-63.0319397298
 24
105.0015855161
  0
DIMENSION
  8
Layer9$C$L9
 62
     3
  2
*D7
 70
     1
 10
-60.0319397298
 20
91.0015855161
 11
-75.0319397298
 21
91.0015855161
 13
-90.0319397298
 23
103.0015855161
 14
-60.0319397298
 24
103.0015855161
  0
DIMENSION
  8
Layer9$C$L9
 62
     3
  2
*D8
 10
-96.0319397298
 20
105.0015855161
 11
-96.0319397298
 21
114.0015856482
 13
-87.0319397298
 23
123.0015855161
 14
-87.0319397298
 24
105.0015855161
 50
-90.0000000000
  0
DIMENSION
  8
Layer9$C$L9
 62
     3
  2
*D9
 10
-101.0319397298
 20
102.0015855161
 11
-101.0319397298
 21
114.0015856482
 13
-89.0319397298
 23
126.0015855161
 14
-89.0319397298
 24
102.0015855161
 50
-90.0000000000
  0
DIMENSION
  8
Layer9$C$L9
 62
     3
  2
*D10
 10
-93.0319397298
 20
140.0015855161
 11
-93.0319397298
 21
149.0015856482
 13
-84.0319397298
 23
158.0015855161
 14
-84.0319397298
 24
140.0015855161
 50
-90.0000000000
  0
DIMENSION
  8
Layer9$C$L9
 62
     3
  2
*D11
 10
-80.5567002342
 20
181.6015855161
 11
-80.5567002342
 21
189.0015856482
 13
-64.9819397298
 23
196.4015855161
 14
-64.9819397298
 24
181.6015855161
 50
-90.0000000000
  0
DIMENSION
  8
Layer9$C$L9
 62
     3
  2
*D12
 70
     3
 10
-70.5239555655
 20
182.7683094602
 11
-76.6730372281
 21
176.8642999099
 15
-57.5399238942
 25
195.2348615721
  0
DIMENSION
  8
Layer9$C$L9
 62
     3
  2
*D13
 70
     3
 10
-69.4112439962
 20
178.2748392429
 11
-71.5785110076
 21
173.9531422006
 15
-58.6526354634
 25
199.7283317893
  0
DIMENSION
  8
Layer9$C$L9
 62
     3
  2
*D14
 70
     4
  1
4-<>
 10
-86.0319397298
 20
160.0015855161
 11
-89.1023419470
 21
166.1645310864
 15
-86.6907135415
 25
160.7539265724
  0
POLYLINE
  8
Layer1$C$L1
 62
     3
 66
     1
  0
VERTEX
  8
Layer1$C$L1
 62
     3
 10
-84.6215750525
 20
159.0015855161
  0
VERTEX
  8
Layer1$C$L1
 62
     3
 10
-84.7665472613
 20
158.9847078671
  0
VERTEX
  8
Layer1$C$L1
 62
     3
 10
-84.8814403839
 20
158.9343087091
  0
VERTEX
  8
Layer1$C$L1
 62
     3
 10
-84.9646629228
 20
158.8510861702
  0
VERTEX
  8
Layer1$C$L1
 62
     3
 10
-85.0150620808
 20
158.7361930476
  0
VERTEX
  8
Layer1$C$L1
 62
     3
 10
-85.0319397298
 20
158.5912208388
  0
SEQEND
  8
Layer1$C$L1
 62
     3
  0
POLYLINE
  8
Layer1$C$L1
 62
     3
 66
     1
  0
VERTEX
  8
Layer1$C$L1
 62
     3
 10
-65.0319397298
 20
158.5912208388
  0
VERTEX
  8
Layer1$C$L1
 62
     3
 10
-65.0488173788
 20
158.7361930476
  0
VERTEX
  8
Layer1$C$L1
 62
     3
 10
-65.0992165368
 20
158.8510861702
  0
VERTEX
  8
Layer1$C$L1
 62
     3
 10
-65.1824390757
 20
158.9343087091
  0
VERTEX
  8
Layer1$C$L1
 62
     3
 10
-65.2973321983
 20
158.9847078671
  0
VERTEX
  8
Layer1$C$L1
 62
     3
 10
-65.4423044071
 20
159.0015855161
  0
SEQEND
  8
Layer1$C$L1
 62
     3
  0
POLYLINE
  8
Layer1$C$L1
 62
     3
 66
     1
  0
VERTEX
  8
Layer1$C$L1
 62
     3
 10
-65.4423044071
 20
139.0015855161
  0
VERTEX
  8
Layer1$C$L1
 62
     3
 10
-65.2973321983
 20
139.0184631651
  0
VERTEX
  8
Layer1$C$L1
 62
     3
 10
-65.1824390757
 20
139.0688623231
  0
VERTEX
  8
Layer1$C$L1
 62
     3
 10
-65.0992165368
 20
139.1520848620
  0
VERTEX
  8
Layer1$C$L1
 62
     3
 10
-65.0488173788
 20
139.2669779846
  0
VERTEX
  8
Layer1$C$L1
 62
     3
 10
-65.0319397298
 20
139.4119501934
  0
SEQEND
  8
Layer1$C$L1
 62
     3
  0
POLYLINE
  8
Layer1$C$L1
 62
     3
 66
     1
  0
VERTEX
  8
Layer1$C$L1
 62
     3
 10
-85.0319397298
 20
139.4119501934
  0
VERTEX
  8
Layer1$C$L1
 62
     3
 10
-85.0150620808
 20
139.2669779846
  0
VERTEX
  8
Layer1$C$L1
 62
     3
 10
-84.9646629228
 20
139.1520848620
  0
VERTEX
  8
Layer1$C$L1
 62
     3
 10
-84.8814403839
 20
139.0688623231
  0
VERTEX
  8
Layer1$C$L1
 62
     3
 10
-84.7665472613
 20
139.0184631651
  0
VERTEX
  8
Layer1$C$L1
 62
     3
 10
-84.6215750525
 20
139.0015855161
  0
SEQEND
  8
Layer1$C$L1
 62
     3
  0
LINE
  8
Layer1$C$L1
 62
     3
 10
-87.0319397298
 20
138.0015855161
 11
-87.0319397298
 21
160.0015855161
  0
LINE
  8
Layer1$C$L1
 62
     3
 10
-86.0319397298
 20
161.0015855161
 11
-64.0319397298
 21
161.0015855161
  0
LINE
  8
Layer1$C$L1
 62
     3
 10
-86.0319397298
 20
137.0015855161
 11
-64.0319397298
 21
137.0015855161
  0
LINE
  8
Layer1$C$L1
 62
     3
 10
-85.0319397298
 20
158.5912208388
 11
-85.0319397298
 21
139.4119501934
  0
LINE
  8
Layer1$C$L1
 62
     3
 10
-84.6215750525
 20
139.0015855161
 11
-65.4423044071
 21
139.0015855161
  0
LINE
  8
Layer1$C$L1
 62
     3
 10
-84.6215750525
 20
159.0015855161
 11
-65.4423044071
 21
159.0015855161
  0
LINE
  8
Layer1$C$L1
 62
     3
 10
-84.2319397298
 20
139.8015855161
 11
-84.2319397298
 21
158.2015855161
  0
LINE
  8
Layer1$C$L1
 62
     3
 10
-84.2319397298
 20
158.2015855161
 11
-65.8319397298
 21
158.2015855161
  0
LINE
  8
Layer1$C$L1
 62
     3
 10
-84.2319397298
 20
139.8015855161
 11
-84.0319397298
 21
140.0015855161
  0
LINE
  8
Layer1$C$L1
 62
     3
 10
-84.2319397298
 20
139.8015855161
 11
-65.8319397298
 21
139.8015855161
  0
LINE
  8
Layer1$C$L1
 62
     3
 10
-84.2319397298
 20
158.2015855161
 11
-84.0319397298
 21
158.0015855161
  0
LINE
  8
Layer1$C$L1
 62
     3
 10
-84.0319397298
 20
158.0015855161
 11
-84.0319397298
 21
140.0015855161
  0
LINE
  8
Layer1$C$L1
 62
     3
 10
-84.0319397298
 20
158.0015855161
 11
-66.0319397298
 21
158.0015855161
  0
LINE
  8
Layer1$C$L1
 62
     3
 10
-84.0319397298
 20
140.0015855161
 11
-66.0319397298
 21
140.0015855161
  0
LINE
  8
Layer1$C$L1
 62
     3
 10
-66.0319397298
 20
140.0015855161
 11
-66.0319397298
 21
158.0015855161
  0
LINE
  8
Layer1$C$L1
 62
     3
 10
-66.0319397298
 20
158.0015855161
 11
-65.8319397298
 21
158.2015855161
  0
LINE
  8
Layer1$C$L1
 62
     3
 10
-66.0319397298
 20
140.0015855161
 11
-65.8319397298
 21
139.8015855161
  0
LINE
  8
Layer1$C$L1
 62
     3
 10
-65.8319397298
 20
158.2015855161
 11
-65.8319397298
 21
139.8015855161
  0
LINE
  8
Layer1$C$L1
 62
     3
 10
-65.0319397298
 20
139.4119501934
 11
-65.0319397298
 21
158.5912208388
  0
LINE
  8
Layer1$C$L1
 62
     3
 10
-63.0319397298
 20
160.0015855161
 11
-63.0319397298
 21
138.0015855161
  0
ARC
  8
Layer1$C$L1
 62
     3
 10
-86.0319397298
 20
138.0015855161
 40
1.0000000000
 50
180.0000000000
 51
270.0000000000
  0
ARC
  8
Layer1$C$L1
 62
     3
 10
-86.0319397298
 20
160.0015855161
 40
1.0000000000
 50
90.0000000000
 51
180.0000000000
  0
ARC
  8
Layer1$C$L1
 62
     3
 10
-75.0319397298
 20
149.0015855161
 40
10.0000000000
 50
205.8419327632
 51
244.1580672368
  0
ARC
  8
Layer1$C$L1
 62
     3
 10
-75.0319397298
 20
149.0015855161
 40
10.0000000000
 50
115.8419327632
 51
154.1580672368
  0
CIRCLE
  8
Layer1$C$L1
 62
     3
 10
-75.0319397298
 20
149.0015855161
 40
8.0000000000
  0
ARC
  8
Layer1$C$L1
 62
     3
 10
-75.0319397298
 20
149.0015855161
 40
10.0000000000
 50
295.8419327632
 51
334.1580672368
  0
ARC
  8
Layer1$C$L1
 62
     3
 10
-75.0319397298
 20
149.0015855161
 40
10.0000000000
 50
25.8419327632
 51
64.1580672368
  0
ARC
  8
Layer1$C$L1
 62
     3
 10
-64.0319397298
 20
160.0015855161
 40
1.0000000000
 50
360.0000000000
 51
450.0000000000
  0
ARC
  8
Layer1$C$L1
 62
     3
 10
-64.0319397298
 20
138.0015855161
 40
1.0000000000
 50
270.0000000000
 51
360.0000000000
  0
LINE
  8
Layer1$C$L1
 62
     3
 10
-64.9819397298
 20
196.9449789975
 11
-64.9819397298
 21
196.4015855161
  0
LINE
  8
Layer1$C$L1
 62
     3
 10
-64.9819397298
 20
196.4015855161
 11
-63.0819397298
 21
196.4015855161
  0
LINE
  8
Layer1$C$L1
 62
     3
 10
-64.9819397298
 20
181.6015855161
 11
-63.0819397298
 21
181.6015855161
  0
LINE
  8
Layer1$C$L1
 62
     3
 10
-64.9819397298
 20
181.6015855161
 11
-64.9819397298
 21
181.0581920347
  0
LINE
  8
Layer1$C$L1
 62
     3
 10
-63.0819397298
 20
196.4015855161
 11
-63.0819397298
 21
196.9449789975
  0
LINE
  8
Layer1$C$L1
 62
     3
 10
-63.0819397298
 20
181.0581920347
 11
-63.0819397298
 21
181.6015855161
  0
CIRCLE
  8
Layer1$C$L1
 62
     3
 10
-64.0319397298
 20
189.0015855161
 40
9.2000000000
  0
ARC
  8
Layer1$C$L1
 62
     3
 10
-64.0319397298
 20
189.0015855161
 40
8.0000000000
 50
276.8199670258
 51
443.1800329742
  0
CIRCLE
  8
Layer1$C$L1
 62
     3
 10
-64.0319397298
 20
189.0015855161
 40
12.0000000000
  0
CIRCLE
  8
Layer1$C$L1
 62
     3
 10
-64.0319397298
 20
189.0015855161
 40
10.0000000000
  0
CIRCLE
  8
Layer1$C$L1
 62
     3
 10
-64.0319397298
 20
189.0015855161
 40
9.0000000000
  0
ARC
  8
Layer1$C$L1
 62
     3
 10
-64.0319397298
 20
189.0015855161
 40
8.0000000000
 50
96.8199670258
 51
263.1800329742
  0
LINE
  8
Layer1$C$L1
 62
     3
 10
-86.7390465110
 20
137.2944787349
 11
-84.9230516534
 21
139.1104735926
  0
LINE
  8
Layer1$C$L1
 62
     3
 10
-63.3248329486
 20
137.2944787349
 11
-65.1408278063
 21
139.1104735926
  0
LINE
  8
Layer1$C$L1
 62
     3
 10
-63.3248329486
 20
160.7086922973
 11
-65.1408278063
 21
158.8926974397
  0
LINE
  8
Layer1$C$L1
 62
     3
 10
-86.7390465110
 20
160.7086922973
 11
-84.9230516534
 21
158.8926974397
  0
LINE
  8
Layer1$C$L1
  6
CENTER
 62
     3
 10
-75.0319397298
 20
135.5015855161
 11
-75.0319397298
 21
162.5015855161
  0
LINE
  8
Layer1$C$L1
  6
CENTER
 62
     3
 10
-88.5319397298
 20
149.0015855161
 11
-61.5319397298
 21
149.0015855161
  0
LINE
  8
Layer1$C$L1
 62
     3
 10
-62.1408278063
 20
104.1104735926
 11
-60.3248329486
 21
102.2944787349
  0
LINE
  8
Layer1$C$L1
 62
     3
 10
-87.9230516534
 20
104.1104735926
 11
-89.7390465110
 21
102.2944787349
  0
LINE
  8
Layer1$C$L1
 62
     3
 10
-87.9230516534
 20
123.8926974397
 11
-89.7390465110
 21
125.7086922973
  0
LINE
  8
Layer1$C$L1
 62
     3
 10
-62.1408278063
 20
123.8926974397
 11
-60.3248329486
 21
125.7086922973
  0
LINE
  8
Layer1$C$L1
  6
CENTER
 62
     3
 10
-91.5319397298
 20
114.0015855161
 11
-58.5319397298
 21
114.0015855161
  0
LINE
  8
Layer1$C$L1
  6
CENTER
 62
     3
 10
-75.0319397298
 20
100.5015855161
 11
-75.0319397298
 21
127.5015855161
  0
POLYLINE
  8
Layer1$C$L1
 62
     3
 66
     1
  0
VERTEX
  8
Layer1$C$L1
 62
     3
 10
-87.6215750525
 20
124.0015855161
  0
VERTEX
  8
Layer1$C$L1
 62
     3
 10
-87.7665472613
 20
123.9847078671
  0
VERTEX
  8
Layer1$C$L1
 62
     3
 10
-87.8814403839
 20
123.9343087091
  0
VERTEX
  8
Layer1$C$L1
 62
     3
 10
-87.9646629228
 20
123.8510861702
  0
VERTEX
  8
Layer1$C$L1
 62
     3
 10
-88.0150620808
 20
123.7361930476
  0
VERTEX
  8
Layer1$C$L1
 62
     3
 10
-88.0319397298
 20
123.5912208388
  0
SEQEND
  8
Layer1$C$L1
 62
     3
  0
POLYLINE
  8
Layer1$C$L1
 62
     3
 66
     1
  0
VERTEX
  8
Layer1$C$L1
 62
     3
 10
-62.0319397298
 20
123.5912208388
  0
VERTEX
  8
Layer1$C$L1
 62
     3
 10
-62.0488173788
 20
123.7361930476
  0
VERTEX
  8
Layer1$C$L1
 62
     3
 10
-62.0992165368
 20
123.8510861702
  0
VERTEX
  8
Layer1$C$L1
 62
     3
 10
-62.1824390757
 20
123.9343087091
  0
VERTEX
  8
Layer1$C$L1
 62
     3
 10
-62.2973321983
 20
123.9847078671
  0
VERTEX
  8
Layer1$C$L1
 62
     3
 10
-62.4423044071
 20
124.0015855161
  0
SEQEND
  8
Layer1$C$L1
 62
     3
  0
POLYLINE
  8
Layer1$C$L1
 62
     3
 66
     1
  0
VERTEX
  8
Layer1$C$L1
 62
     3
 10
-62.4423044071
 20
104.0015855161
  0
VERTEX
  8
Layer1$C$L1
 62
     3
 10
-62.2973321983
 20
104.0184631651
  0
VERTEX
  8
Layer1$C$L1
 62
     3
 10
-62.1824390757
 20
104.0688623231
  0
VERTEX
  8
Layer1$C$L1
 62
     3
 10
-62.0992165368
 20
104.1520848620
  0
VERTEX
  8
Layer1$C$L1
 62
     3
 10
-62.0488173788
 20
104.2669779846
  0
VERTEX
  8
Layer1$C$L1
 62
     3
 10
-62.0319397298
 20
104.4119501934
  0
SEQEND
  8
Layer1$C$L1
 62
     3
  0
POLYLINE
  8
Layer1$C$L1
 62
     3
 66
     1
  0
VERTEX
  8
Layer1$C$L1
 62
     3
 10
-88.0319397298
 20
104.4119501934
  0
VERTEX
  8
Layer1$C$L1
 62
     3
 10
-88.0150620808
 20
104.2669779846
  0
VERTEX
  8
Layer1$C$L1
 62
     3
 10
-87.9646629228
 20
104.1520848620
  0
VERTEX
  8
Layer1$C$L1
 62
     3
 10
-87.8814403839
 20
104.0688623231
  0
VERTEX
  8
Layer1$C$L1
 62
     3
 10
-87.7665472613
 20
104.0184631651
  0
VERTEX
  8
Layer1$C$L1
 62
     3
 10
-87.6215750525
 20
104.0015855161
  0
SEQEND
  8
Layer1$C$L1
 62
     3
  0
LINE
  8
Layer1$C$L1
 62
     3
 10
-90.0319397298
 20
103.0015855161
 11
-90.0319397298
 21
125.0015855161
  0
LINE
  8
Layer1$C$L1
 62
     3
 10
-89.0319397298
 20
126.0015855161
 11
-61.0319397298
 21
126.0015855161
  0
LINE
  8
Layer1$C$L1
 62
     3
 10
-89.0319397298
 20
102.0015855161
 11
-61.0319397298
 21
102.0015855161
  0
LINE
  8
Layer1$C$L1
 62
     3
 10
-88.0319397298
 20
123.5912208388
 11
-88.0319397298
 21
104.4119501934
  0
LINE
  8
Layer1$C$L1
 62
     3
 10
-87.6215750525
 20
104.0015855161
 11
-62.4423044071
 21
104.0015855161
  0
LINE
  8
Layer1$C$L1
 62
     3
 10
-87.6215750525
 20
124.0015855161
 11
-62.4423044071
 21
124.0015855161
  0
LINE
  8
Layer1$C$L1
 62
     3
 10
-87.2319397298
 20
123.2015855161
 11
-87.0319397298
 21
123.0015855161
  0
LINE
  8
Layer1$C$L1
 62
     3
 10
-87.2319397298
 20
104.8015855161
 11
-87.2319397298
 21
123.2015855161
  0
LINE
  8
Layer1$C$L1
 62
     3
 10
-87.2319397298
 20
123.2015855161
 11
-62.8319397298
 21
123.2015855161
  0
LINE
  8
Layer1$C$L1
 62
     3
 10
-87.2319397298
 20
104.8015855161
 11
-87.0319397298
 21
105.0015855161
  0
LINE
  8
Layer1$C$L1
 62
     3
 10
-87.2319397298
 20
104.8015855161
 11
-62.8319397298
 21
104.8015855161
  0
LINE
  8
Layer1$C$L1
 62
     3
 10
-87.0319397298
 20
123.0015855161
 11
-63.0319397298
 21
123.0015855161
  0
LINE
  8
Layer1$C$L1
 62
     3
 10
-87.0319397298
 20
105.0015855161
 11
-63.0319397298
 21
105.0015855161
  0
LINE
  8
Layer1$C$L1
 62
     3
 10
-87.0319397298
 20
123.0015855161
 11
-87.0319397298
 21
105.0015855161
  0
LINE
  8
Layer1$C$L1
 62
     3
 10
-63.0319397298
 20
123.0015855161
 11
-62.8319397298
 21
123.2015855161
  0
LINE
  8
Layer1$C$L1
 62
     3
 10
-63.0319397298
 20
105.0015855161
 11
-63.0319397298
 21
123.0015855161
  0
LINE
  8
Layer1$C$L1
 62
     3
 10
-63.0319397298
 20
105.0015855161
 11
-62.8319397298
 21
104.8015855161
  0
LINE
  8
Layer1$C$L1
 62
     3
 10
-62.8319397298
 20
123.2015855161
 11
-62.8319397298
 21
104.8015855161
  0
LINE
  8
Layer1$C$L1
 62
     3
 10
-62.0319397298
 20
104.4119501934
 11
-62.0319397298
 21
123.5912208388
  0
LINE
  8
Layer1$C$L1
 62
     3
 10
-60.0319397298
 20
125.0015855161
 11
-60.0319397298
 21
103.0015855161
  0
ARC
  8
Layer1$C$L1
 62
     3
 10
-89.0319397298
 20
125.0015855161
 40
1.0000000000
 50
90.0000000000
 51
180.0000000000
  0
ARC
  8
Layer1$C$L1
 62
     3
 10
-89.0319397298
 20
103.0015855161
 40
1.0000000000
 50
180.0000000000
 51
270.0000000000
  0
CIRCLE
  8
Layer1$C$L1
 62
     3
 10
-75.0319397298
 20
114.0015855161
 40
8.0000000000
  0
ARC
  8
Layer1$C$L1
 62
     3
 10
-75.0319397298
 20
114.0015855161
 40
10.0000000000
 50
115.8419327632
 51
244.1580672368
  0
ARC
  8
Layer1$C$L1
 62
     3
 10
-75.0319397298
 20
114.0015855161
 40
10.0000000000
 50
295.8419327632
 51
424.1580672368
  0
ARC
  8
Layer1$C$L1
 62
     3
 10
-61.0319397298
 20
125.0015855161
 40
1.0000000000
 50
7.1244424865E-13
 51
90.0000000000
  0
ARC
  8
Layer1$C$L1
 62
     3
 10
-61.0319397298
 20
103.0015855161
 40
1.0000000000
 50
270.0000000000
 51
360.0000000000
  0
LINE
  8
Layer1$C$L1
  6
CENTER
 62
     3
 10
-77.5319397298
 20
189.0015855161
 11
-50.5319397298
 21
189.0015855161
  0
LINE
  8
Layer1$C$L1
  6
CENTER
 62
     3
 10
-64.0319397298
 20
175.5015855161
 11
-64.0319397298
 21
202.5015855161
  0
DIMENSION
  8
Layer9$C$L9
 62
     3
  2
*D15
 70
     1
 10
-157.4144874604
 20
124.7015855161
 11
-157.4144874604
 21
114.0015854396
 13
-151.4144874604
 23
103.3015855161
 14
-151.4144874604
 24
124.7015855161
 50
90.0000000000
  0
DIMENSION
  8
Layer9$C$L9
 62
     3
  2
*D16
 70
     1
 10
-150.5144874604
 20
172.3015855161
 11
-145.1369864877
 21
172.3015855161
 13
-151.4144874604
 23
178.3015855161
 14
-150.5144874604
 24
178.3015855161
  0
DIMENSION
  8
Layer9$C$L9
 62
     3
  2
*D17
 70
     1
 10
-157.4144874604
 20
98.6265847765
 11
-157.4144874604
 21
84.9265847000
 13
-151.4144874604
 23
71.2265847765
 14
-151.4144874604
 24
98.6265847765
 50
90.0000000000
  0
LINE
  8
Layer1$C$L1
 62
     3
 10
-151.4144874604
 20
71.2265847765
 11
-151.4144874604
 21
98.6265847765
  0
LINE
  8
Layer1$C$L1
 62
     3
 10
-151.4144874604
 20
103.3015855161
 11
-151.4144874604
 21
124.7015855161
  0
LINE
  8
Layer1$C$L1
 62
     3
 10
-151.4144874604
 20
138.3015855161
 11
-151.4144874604
 21
159.7015855161
  0
LINE
  8
Layer1$C$L1
 62
     3
 10
-151.4144874604
 20
178.3015855161
 11
-151.4144874604
 21
199.7015855161
  0
LINE
  8
Layer1$C$L1
 62
     3
 10
-151.4144874604
 20
199.7015855161
 11
-150.5144874604
 21
199.7015855161
  0
LINE
  8
Layer1$C$L1
 62
     3
 10
-151.4144874604
 20
178.3015855161
 11
-150.5144874604
 21
178.3015855161
  0
LINE
  8
Layer1$C$L1
 62
     3
 10
-151.4144874604
 20
159.7015855161
 11
-150.5144874604
 21
159.7015855161
  0
LINE
  8
Layer1$C$L1
 62
     3
 10
-151.4144874604
 20
138.3015855161
 11
-150.5144874604
 21
138.3015855161
  0
LINE
  8
Layer1$C$L1
 62
     3
 10
-151.4144874604
 20
124.7015855161
 11
-150.5144874604
 21
124.7015855161
  0
LINE
  8
Layer1$C$L1
 62
     3
 10
-151.4144874604
 20
103.3015855161
 11
-150.5144874604
 21
103.3015855161
  0
LINE
  8
Layer1$C$L1
 62
     3
 10
-151.4144874604
 20
98.6265847765
 11
-150.5144874604
 21
98.6265847765
  0
LINE
  8
Layer1$C$L1
 62
     3
 10
-151.4144874604
 20
71.2265847765
 11
-150.5144874604
 21
71.2265847765
  0
DIMENSION
  8
Layer9$C$L9
 62
     3
  2
*D18
 10
-187.1819397298
 20
73.4265847765
 11
-187.1819397298
 21
84.9265848321
 13
-181.1819397298
 23
96.4265847765
 14
-181.1819397298
 24
73.4265847765
 50
-90.0000000000
  0
LINE
  8
Layer1$C$L1
 62
     3
 10
-181.1819397298
 20
96.4265847765
 11
-181.1819397298
 21
73.4265847765
  0
LINE
  8
Layer1$C$L1
 62
     3
 10
-172.6851651027
 20
96.4265847765
 11
-181.1819397298
 21
96.4265847765
  0
LINE
  8
Layer1$C$L1
 62
     3
 10
-171.7192392764
 20
95.6854038216
 11
-171.3819397298
 21
94.4265847765
  0
LINE
  8
Layer1$C$L1
 62
     3
 10
-171.3819397298
 20
94.4265847765
 11
-172.3478655561
 21
90.8217005164
  0
LINE
  8
Layer1$C$L1
 62
     3
 10
-172.3819397298
 20
90.5628814713
 11
-172.3819397298
 21
79.2902880816
  0
LINE
  8
Layer1$C$L1
 62
     3
 10
-172.3478655561
 20
79.0314690365
 11
-171.3819397298
 21
75.4265847765
  0
LINE
  8
Layer1$C$L1
 62
     3
 10
-171.3819397298
 20
75.4265847765
 11
-171.7192392764
 21
74.1677657314
  0
LINE
  8
Layer1$C$L1
 62
     3
 10
-172.6851651027
 20
73.4265847765
 11
-181.1819397298
 21
73.4265847765
  0
ARC
  8
Layer1$C$L1
 62
     3
 10
-172.6851651027
 20
95.4265847765
 40
1.0000000000
 50
15.0000000000
 51
90.0000000000
  0
ARC
  8
Layer1$C$L1
 62
     3
 10
-171.3819397298
 20
90.5628814713
 40
1.0000000000
 50
165.0000000000
 51
180.0000000000
  0
ARC
  8
Layer1$C$L1
 62
     3
 10
-171.3819397298
 20
79.2902880816
 40
1.0000000000
 50
180.0000000000
 51
195.0000000000
  0
ARC
  8
Layer1$C$L1
 62
     3
 10
-172.6851651027
 20
74.4265847765
 40
1.0000000000
 50
270.0000000000
 51
345.0000000000
  0
DIMENSION
  8
Layer9$C$L9
 62
     3
  2
*D19
 10
-181.6819397298
 20
171.7015855161
 11
-175.6466422712
 21
171.7015855161
 13
-180.8819397298
 23
178.5015855161
 14
-181.6819397298
 24
178.7015855161
 50
180.0000000000
  0
DIMENSION
  8
Layer9$C$L9
 62
     3
  2
*D20
 10
-171.8819397298
 20
166.7009849266
 11
-176.7819397298
 21
166.7009849266
 13
-181.6819397298
 23
178.7015855161
 14
-171.8819397298
 24
177.7015855161
  0
LINE
  8
Layer1$C$L1
 62
     3
 10
-181.6819397298
 20
103.7015855161
 11
-181.6819397298
 21
124.3015855161
  0
LINE
  8
Layer1$C$L1
 62
     3
 10
-180.8819397298
 20
103.5015855161
 11
-180.8819397298
 21
124.5015855161
  0
LINE
  8
Layer1$C$L1
 62
     3
 10
-180.8819397298
 20
103.5015855161
 11
-171.8819397298
 21
103.5015855161
  0
LINE
  8
Layer1$C$L1
 62
     3
 10
-180.8819397298
 20
124.5015855161
 11
-171.8819397298
 21
124.5015855161
  0
LINE
  8
Layer1$C$L1
 62
     3
 10
-180.6819397298
 20
125.3015855161
 11
-171.8819397298
 21
125.3015855161
  0
LINE
  8
Layer1$C$L1
 62
     3
 10
-180.6819397298
 20
102.7015855161
 11
-171.8819397298
 21
102.7015855161
  0
LINE
  8
Layer1$C$L1
 62
     3
 10
-171.8819397298
 20
125.3015855161
 11
-171.8819397298
 21
124.5015855161
  0
LINE
  8
Layer1$C$L1
 62
     3
 10
-171.8819397298
 20
103.5015855161
 11
-171.8819397298
 21
102.7015855161
  0
ARC
  8
Layer1$C$L1
 62
     3
 10
-180.6819397298
 20
103.7015855161
 40
1.0000000000
 50
180.0000000000
 51
270.0000000000
  0
ARC
  8
Layer1$C$L1
 62
     3
 10
-180.6819397298
 20
124.3015855161
 40
1.0000000000
 50
90.0000000000
 51
180.0000000000
  0
ARC
  8
Layer1$C$L1
 62
     3
 10
-180.6819397298
 20
159.3015855161
 40
1.0000000000
 50
90.0000000000
 51
180.0000000000
  0
ARC
  8
Layer1$C$L1
 62
     3
 10
-180.6819397298
 20
138.7015855161
 40
1.0000000000
 50
180.0000000000
 51
270.0000000000
  0
LINE
  8
Layer1$C$L1
 62
     3
 10
-171.8819397298
 20
138.5015855161
 11
-171.8819397298
 21
137.7015855161
  0
LINE
  8
Layer1$C$L1
 62
     3
 10
-171.8819397298
 20
160.3015855161
 11
-171.8819397298
 21
159.5015855161
  0
LINE
  8
Layer1$C$L1
 62
     3
 10
-180.6819397298
 20
137.7015855161
 11
-171.8819397298
 21
137.7015855161
  0
LINE
  8
Layer1$C$L1
 62
     3
 10
-180.6819397298
 20
160.3015855161
 11
-171.8819397298
 21
160.3015855161
  0
LINE
  8
Layer1$C$L1
 62
     3
 10
-180.8819397298
 20
159.5015855161
 11
-171.8819397298
 21
159.5015855161
  0
LINE
  8
Layer1$C$L1
 62
     3
 10
-180.8819397298
 20
138.5015855161
 11
-171.8819397298
 21
138.5015855161
  0
LINE
  8
Layer1$C$L1
 62
     3
 10
-180.8819397298
 20
138.5015855161
 11
-180.8819397298
 21
159.5015855161
  0
LINE
  8
Layer1$C$L1
 62
     3
 10
-181.6819397298
 20
138.7015855161
 11
-181.6819397298
 21
159.3015855161
  0
DIMENSION
  8
Layer9$C$L9
 62
     3
  2
*D21
 10
-187.6819397298
 20
177.7015855161
 11
-187.6819397298
 21
189.0015856482
 13
-180.6819397298
 23
200.3015855161
 14
-180.6819397298
 24
177.7015855161
 50
-90.0000000000
  0
LINE
  8
Layer1$C$L1
 62
     3
 10
-181.6819397298
 20
178.7015855161
 11
-181.6819397298
 21
199.3015855161
  0
LINE
  8
Layer1$C$L1
 62
     3
 10
-180.8819397298
 20
178.5015855161
 11
-180.8819397298
 21
199.5015855161
  0
LINE
  8
Layer1$C$L1
 62
     3
 10
-180.8819397298
 20
178.5015855161
 11
-171.8819397298
 21
178.5015855161
  0
LINE
  8
Layer1$C$L1
 62
     3
 10
-180.8819397298
 20
199.5015855161
 11
-171.8819397298
 21
199.5015855161
  0
LINE
  8
Layer1$C$L1
 62
     3
 10
-180.6819397298
 20
200.3015855161
 11
-171.8819397298
 21
200.3015855161
  0
LINE
  8
Layer1$C$L1
 62
     3
 10
-180.6819397298
 20
177.7015855161
 11
-171.8819397298
 21
177.7015855161
  0
LINE
  8
Layer1$C$L1
 62
     3
 10
-171.8819397298
 20
200.3015855161
 11
-171.8819397298
 21
199.5015855161
  0
LINE
  8
Layer1$C$L1
 62
     3
 10
-171.8819397298
 20
178.5015855161
 11
-171.8819397298
 21
177.7015855161
  0
ARC
  8
Layer1$C$L1
 62
     3
 10
-180.6819397298
 20
178.7015855161
 40
1.0000000000
 50
180.0000000000
 51
270.0000000000
  0
ARC
  8
Layer1$C$L1
 62
     3
 10
-180.6819397298
 20
199.3015855161
 40
1.0000000000
 50
90.0000000000
 51
180.0000000000
  0
LINE
  8
Layer1$C$L1
 62
     3
 10
-122.6819397298
 20
70.0451640609
 11
-122.6819397298
 21
99.8080054920
  0
LINE
  8
Layer1$C$L1
 62
     3
 10
-123.7819397298
 20
99.9265847765
 11
-123.7819397298
 21
69.9265847765
  0
LINE
  8
Layer1$C$L1
 62
     3
 10
-123.7819397298
 20
99.9265847765
 11
-123.0052325348
 21
99.9265847765
  0
LINE
  8
Layer1$C$L1
 62
     3
 10
-122.5492717822
 20
99.6317671151
 11
-121.7819397298
 21
97.9265847765
  0
LINE
  8
Layer1$C$L1
 62
     3
 10
-121.7819397298
 20
97.9265847765
 11
-121.7819397298
 21
71.9265847765
  0
LINE
  8
Layer1$C$L1
 62
     3
 10
-121.7819397298
 20
71.9265847765
 11
-122.5492717822
 21
70.2214024378
  0
LINE
  8
Layer1$C$L1
 62
     3
 10
-123.0052325348
 20
69.9265847765
 11
-123.7819397298
 21
69.9265847765
  0
ARC
  8
Layer1$C$L1
 62
     3
 10
-123.0052325348
 20
99.4265847765
 40
0.5000000000
 50
24.2277453180
 51
90.0000000000
  0
ARC
  8
Layer1$C$L1
 62
     3
 10
-123.0052325348
 20
70.4265847765
 40
0.5000000000
 50
270.0000000000
 51
335.7722546820
  0
LINE
  8
Layer1$C$L1
 62
     3
 10
-122.6819397298
 20
177.0894482651
 11
-122.6819397298
 21
200.9137227672
  0
ARC
  8
Layer1$C$L1
 62
     3
 10
-122.9650349193
 20
177.5015855161
 40
0.5000000000
 50
270.0000000000
 51
329.0362434679
  0
ARC
  8
Layer1$C$L1
 62
     3
 10
-122.9650349193
 20
200.5015855161
 40
0.5000000000
 50
30.9637565321
 51
90.0000000000
  0
LINE
  8
Layer1$C$L1
 62
     3
 10
-121.7819397298
 20
178.5015855161
 11
-121.7819397298
 21
199.5015855161
  0
LINE
  8
Layer1$C$L1
 62
     3
 10
-122.5362884564
 20
177.2443376384
 11
-121.7819397298
 21
178.5015855161
  0
LINE
  8
Layer1$C$L1
 62
     3
 10
-122.5362884564
 20
200.7588333938
 11
-121.7819397298
 21
199.5015855161
  0
LINE
  8
Layer1$C$L1
 62
     3
 10
-123.7819397298
 20
177.0015855161
 11
-122.9650349193
 21
177.0015855161
  0
LINE
  8
Layer1$C$L1
 62
     3
 10
-123.7819397298
 20
177.0015855161
 11
-123.7819397298
 21
201.0015855161
  0
LINE
  8
Layer1$C$L1
 62
     3
 10
-123.7819397298
 20
201.0015855161
 11
-122.9650349193
 21
201.0015855161
  0
LINE
  8
Layer1$C$L1
 62
     3
 10
-123.7819397298
 20
161.0015855161
 11
-122.9650349193
 21
161.0015855161
  0
LINE
  8
Layer1$C$L1
 62
     3
 10
-123.7819397298
 20
137.0015855161
 11
-123.7819397298
 21
161.0015855161
  0
LINE
  8
Layer1$C$L1
 62
     3
 10
-123.7819397298
 20
137.0015855161
 11
-122.9650349193
 21
137.0015855161
  0
LINE
  8
Layer1$C$L1
 62
     3
 10
-122.5362884564
 20
160.7588333938
 11
-121.7819397298
 21
159.5015855161
  0
LINE
  8
Layer1$C$L1
 62
     3
 10
-122.5362884564
 20
137.2443376384
 11
-121.7819397298
 21
138.5015855161
  0
LINE
  8
Layer1$C$L1
 62
     3
 10
-121.7819397298
 20
138.5015855161
 11
-121.7819397298
 21
159.5015855161
  0
ARC
  8
Layer1$C$L1
 62
     3
 10
-122.9650349193
 20
160.5015855161
 40
0.5000000000
 50
30.9637565321
 51
90.0000000000
  0
ARC
  8
Layer1$C$L1
 62
     3
 10
-122.9650349193
 20
137.5015855161
 40
0.5000000000
 50
270.0000000000
 51
329.0362434679
  0
LINE
  8
Layer1$C$L1
 62
     3
 10
-122.6819397298
 20
137.0894482651
 11
-122.6819397298
 21
160.9137227672
  0
LINE
  8
Layer1$C$L1
 62
     3
 10
-122.6819397298
 20
102.0894482651
 11
-122.6819397298
 21
125.9137227672
  0
ARC
  8
Layer1$C$L1
 62
     3
 10
-122.9650349193
 20
102.5015855161
 40
0.5000000000
 50
270.0000000000
 51
329.0362434679
  0
ARC
  8
Layer1$C$L1
 62
     3
 10
-122.9650349193
 20
125.5015855161
 40
0.5000000000
 50
30.9637565321
 51
90.0000000000
  0
LINE
  8
Layer1$C$L1
 62
     3
 10
-121.7819397298
 20
103.5015855161
 11
-121.7819397298
 21
124.5015855161
  0
LINE
  8
Layer1$C$L1
 62
     3
 10
-122.5362884564
 20
102.2443376384
 11
-121.7819397298
 21
103.5015855161
  0
LINE
  8
Layer1$C$L1
 62
     3
 10
-122.5362884564
 20
125.7588333938
 11
-121.7819397298
 21
124.5015855161
  0
LINE
  8
Layer1$C$L1
 62
     3
 10
-123.7819397298
 20
102.0015855161
 11
-122.9650349193
 21
102.0015855161
  0
LINE
  8
Layer1$C$L1
 62
     3
 10
-123.7819397298
 20
102.0015855161
 11
-123.7819397298
 21
126.0015855161
  0
LINE
  8
Layer1$C$L1
 62
     3
 10
-123.7819397298
 20
126.0015855161
 11
-122.9650349193
 21
126.0015855161
  0
LINE
  8
Layer1$C$L1
 62
     3
 10
-150.5144874604
 20
71.2265847765
 11
-150.5144874604
 21
98.6265847765
  0
LINE
  8
Layer1$C$L1
  6
CENTER
 62
     3
 10
-152.0319397298
 20
84.9265847765
 11
-149.3709539343
 21
84.9265847765
  0
LINE
  8
Layer1$C$L1
  6
CENTER
 62
     3
 10
-186.6819397298
 20
84.9265847765
 11
-167.3819397298
 21
84.9265847765
  0
LINE
  8
Layer1$C$L1
  6
CENTER
 62
     3
 10
-133.5319397298
 20
84.9265847765
 11
-120.5319397298
 21
84.9265847765
  0
DIMENSION
  8
Layer9$C$L9
 62
     3
  2
*D22
 10
-138.2819397298
 20
71.9265847765
 11
-138.2819397298
 21
84.9265852702
 13
-132.2819397298
 23
97.9265847765
 14
-132.2819397298
 24
71.9265847765
 50
-90.0000000000
  0
LINE
  8
Layer1$C$L1
 62
     3
 10
-123.7819397298
 20
97.9265847765
 11
-132.2819397298
 21
97.9265847765
  0
LINE
  8
Layer1$C$L1
 62
     3
 10
-132.2819397298
 20
97.9265847765
 11
-132.2819397298
 21
71.9265847765
  0
LINE
  8
Layer1$C$L1
 62
     3
 10
-123.7819397298
 20
71.9265847765
 11
-132.2819397298
 21
71.9265847765
  0
LINE
  8
Layer1$C$L1
  6
CENTER
 62
     3
 10
-152.0319397298
 20
114.0015855161
 11
-149.3709539343
 21
114.0015855161
  0
LINE
  8
Layer1$C$L1
 62
     3
 10
-150.5144874604
 20
103.3015855161
 11
-150.5144874604
 21
124.7015855161
  0
LINE
  8
Layer1$C$L1
  6
CENTER
 62
     3
 10
-186.6819397298
 20
114.0015855161
 11
-167.3819397298
 21
114.0015855161
  0
LINE
  8
Layer1$C$L1
 62
     3
 10
-123.7819397298
 20
104.0015855161
 11
-132.2819397298
 21
104.0015855161
  0
LINE
  8
Layer1$C$L1
 62
     3
 10
-123.7819397298
 20
124.0015855161
 11
-132.2819397298
 21
124.0015855161
  0
LINE
  8
Layer1$C$L1
 62
     3
 10
-132.2819397298
 20
124.0015855161
 11
-132.2819397298
 21
104.0015855161
  0
LINE
  8
Layer1$C$L1
  6
CENTER
 62
     3
 10
-133.5319397298
 20
114.0015855161
 11
-120.5319397298
 21
114.0015855161
  0
DIMENSION
  8
Layer9$C$L9
 62
     3
  2
*D23
 10
-138.2819397298
 20
104.0015855161
 11
-138.2819397298
 21
114.0015860446
 13
-132.2819397298
 23
124.0015855161
 14
-132.2819397298
 24
104.0015855161
 50
-90.0000000000
  0
DIMENSION
  8
Layer9$C$L9
 62
     3
  2
*D24
  1
%%c<>
 10
-138.2819397298
 20
179.0015855161
 11
-140.0319372272
 21
189.0015863088
 13
-132.2819397298
 23
199.0015855161
 14
-132.2819397298
 24
179.0015855161
 50
-90.0000000000
  0
LINE
  8
Layer1$C$L1
  6
CENTER
 62
     3
 10
-133.5319397298
 20
189.0015855161
 11
-120.5319397298
 21
189.0015855161
  0
LINE
  8
Layer1$C$L1
 62
     3
 10
-132.2819397298
 20
199.0015855161
 11
-132.2819397298
 21
179.0015855161
  0
LINE
  8
Layer1$C$L1
 62
     3
 10
-123.7819397298
 20
199.0015855161
 11
-132.2819397298
 21
199.0015855161
  0
LINE
  8
Layer1$C$L1
 62
     3
 10
-123.7819397298
 20
179.0015855161
 11
-132.2819397298
 21
179.0015855161
  0
LINE
  8
Layer1$C$L1
  6
CENTER
 62
     3
 10
-186.6819397298
 20
189.0015855161
 11
-167.3819397298
 21
189.0015855161
  0
LINE
  8
Layer1$C$L1
 62
     3
 10
-150.5144874604
 20
178.3015855161
 11
-150.5144874604
 21
199.7015855161
  0
LINE
  8
Layer1$C$L1
  6
CENTER
 62
     3
 10
-152.0319397298
 20
189.0015855161
 11
-149.3709539343
 21
189.0015855161
  0
DIMENSION
  8
Layer9$C$L9
 62
     3
  2
*D25
 10
-187.6819397298
 20
177.7015855161
 11
-187.6819397298
 21
189.0015856482
 13
-181.6819397298
 23
200.3015855161
 14
-181.6819397298
 24
177.7015855161
 50
-90.0000000000
  0
DIMENSION
  8
Layer9$C$L9
 62
     3
  2
*D26
 10
-123.7819397298
 20
166.0015855161
 11
-115.9467264023
 21
166.0015855161
 13
-121.7819397298
 23
179.0015855161
 14
-123.7819397298
 24
177.0015855161
 50
180.0000000000
  0
DIMENSION
  8
Layer9$C$L9
 62
     3
  2
*D27
 10
-132.2819397298
 20
166.0015855161
 11
-128.0319400358
 21
166.0015855161
 13
-123.7819397298
 23
177.0015855161
 14
-132.2819397298
 24
179.0015855161
 50
180.0000000000
  0
LINE
  8
Layer1$C$L1
  6
CENTER
 62
     3
 10
-152.0319397298
 20
149.0015855161
 11
-149.3709539343
 21
149.0015855161
  0
LINE
  8
Layer1$C$L1
 62
     3
 10
-150.5144874604
 20
138.3015855161
 11
-150.5144874604
 21
159.7015855161
  0
LINE
  8
Layer1$C$L1
  6
CENTER
 62
     3
 10
-186.6819397298
 20
149.0015855161
 11
-167.3819397298
 21
149.0015855161
  0
LINE
  8
Layer1$C$L1
 62
     3
 10
-123.7819397298
 20
139.0015855161
 11
-132.2819397298
 21
139.0015855161
  0
LINE
  8
Layer1$C$L1
 62
     3
 10
-123.7819397298
 20
159.0015855161
 11
-132.2819397298
 21
159.0015855161
  0
LINE
  8
Layer1$C$L1
 62
     3
 10
-132.2819397298
 20
159.0015855161
 11
-132.2819397298
 21
139.0015855161
  0
LINE
  8
Layer1$C$L1
  6
CENTER
 62
     3
 10
-133.5319397298
 20
149.0015855161
 11
-120.5319397298
 21
149.0015855161
  0
DIMENSION
  8
Layer9$C$L9
 62
     3
  2
*D28
 10
-138.2819397298
 20
139.0015855161
 11
-138.2819397298
 21
149.0015859125
 13
-132.2819397298
 23
159.0015855161
 14
-132.2819397298
 24
139.0015855161
 50
-90.0000000000
  0
ARC
  8
Layer1$C$L1
 62
     3
 10
-98.0319397298
 20
189.0015855161
 40
7.4000000000
 50
83.0142997838
 51
96.9857002162
  0
LINE
  8
Layer1$C$L1
 62
     3
 10
-98.9319397298
 20
196.3403524425
 11
-98.9319397298
 21
196.6075042640
  0
LINE
  8
Layer1$C$L1
 62
     3
 10
-97.1319397298
 20
196.3403524425
 11
-97.1319397298
 21
196.6075042640
  0
ARC
  8
Layer1$C$L1
 62
     3
 10
-99.2319397298
 20
196.6075042640
 40
0.3000000000
 50
0.0000000000
 51
98.9657577948
  0
ARC
  8
Layer1$C$L1
 62
     3
 10
-96.8319397298
 20
196.6075042640
 40
0.3000000000
 50
81.0342422053
 51
180.0000000000
  0
ARC
  8
Layer1$C$L1
 62
     3
 10
-98.0319397298
 20
189.0015855161
 40
8.0000000000
 50
98.9657577948
 51
441.0342422052
  0
ENDSEC
  0
EOF
